• Игры для PS4
  • Игры для PS3
  • Игры для XBOX360
  • Игры для PC
  • Игры для PS2
  • Игры для PSP
  • Для телефонов
  • Музыка
  • Книги / Журналы
  • Обои
  • Опрос
    Откуда Вы о нас узнали?
      0
    • От знакомых2,1,false,300,full
    • Из социальных сетей2,2,false,300,full
    • Из поисковых систем2,3,false,300,full
    • Другое2,4,false,300,full
    Статистика
    Всего онлайн -
    Гостей -
    Пользователей -
    Короли трекера
    
    Благодарности () Закрыть
    Быстрее загружает сайты Экономит интернет—трафик Меняет оформление страницы ВК Блокирует всю рекламу на сайтах Загружает торренты как µTorrent клиент Объеденяет все твои чаты из соц. сетей в один Проигрывает твою музыку не заходя во ВКонтакте
    Новый интернет-браузер
    Оrbitum
    Скачать
    и многое другое... Подробности на сайте производителя
    Оригинальное название: George of the Jungle 2
    Год выхода: 2003

    Страна: США, Австралия
    Студия: Walt Disney Pictures, Kerner Entertainment Company
    Продолжительность: 01:26:57
    Жанр: комедия, приключения, семейный

    Режиссер: Дэвид Гроссман
    В ролях: Кристофер Шоуэрман, Джули Бенц, Энгус Т. Джонс, Томас Хейден Чёрч, Кристина Пиклз, Джон Клиз, Майкл Кларк Дункан, Джон Кассир, Кевин Гротерт, Кит Скотт, ...

    Перевод:
    - Профессиональный (многоголосый, закадровый) ?
    - Профессиональный (двуголосый, закадровый) Петр Иващенко и Инна Королева
    - Субтитры

    О фильме: Кто живет в диком африканском лесу, с воплем носится на лиане и водит дружбу со зверями? Тарзан? Не угадали! Маугли? Мимо! Это же старина Джордж, Король джунглей! Он по-прежнему часто врезается на лиане в деревья и проигрывает в битве интеллектов друзьям-гориллам. Но сейчас придется Джорджу покинуть любимую чащобу, чтобы разом переделать уйму дел: выручить друга, говорящую гориллу Эйпа, умудрившегося наделать долгов в казино Лас-Вегаса, отстоять жену и сына у пытающейся вернуть их к цивилизации тещи и заодно трон Короля джунглей, на который пытается наложить лапу один предприимчивый лев!…



    Кодек: MPEG4/ISO/AVC
    Качество: WEB-DL 1080p
    Видео: 1920x1080, 7500 kbps, 23,976 fps
    Аудио #1: AC-3, 6 ch, 384 kbps (Rus) - MVO
    Аудио #2: AC-3, 6 ch, 384 kbps kbps (Rus) - DVO Петр Иващенко (Гланц) и Инна Королева
    Аудио #3: AC-3, 6 ch, 384 kbps kbps (Eng)
    Субтитры: русские, английские

    MediaInfo
    Общее
    Уникальный идентификатор : 220530238595662748002239729103686055780 (0xA5E8943A5AD9A853B8BD34305BCFB764)
    Полное имя : Джордж из джунглей 2 (George of the Jungle 2) 2003 WEBRip 1080p.mkv
    Формат : Matroska
    Версия формата : Version 2
    Размер файла : 5,25 Гбайт
    Продолжительность : 1 ч. 26 м.
    Режим общего битрейта : Переменный
    Общий поток : 8652 Кбит/сек
    Дата кодирования : UTC 2018-07-08 09:13:56
    Программа кодирования : mkvmerge v4.0.0 ("The Stars were mine") сборка от Jun 6 2010 16:18:42
    Библиотека кодирования : libebml v1.0.0 + libmatroska v1.0.0

    Видео
    Идентификатор : 1
    Формат : AVC
    Формат/Информация : Advanced Video Codec
    Профиль формата : Main@L4
    Параметр CABAC формата : Да
    Параметр ReFrames формата : 3 кадра
    Идентификатор кодека : V_MPEG4/ISO/AVC
    Продолжительность : 1 ч. 26 м.
    Вид битрейта : Переменный
    Битрейт : 7500 Кбит/сек
    Максимальный битрейт : 11,2 Мбит/сек
    Ширина : 1920 пикселей
    Высота : 1080 пикселей
    Соотношение сторон : 16:9
    Режим частоты кадров : Постоянный
    Частота кадров : 23,976 (24000/1001) кадра/сек
    Цветовое пространство : YUV
    Субдискретизация насыщенности : 4:2:0
    Битовая глубина : 8 бит
    Тип развёртки : Прогрессивная
    Бит/(Пиксели*Кадры) : 0.151
    Размер потока : 4,45 Гбайт (85%)
    Библиотека кодирования : x264 core 118
    Настройки программы : cabac=1 / ref=3 / deblock=1:0:0 / analyse=0x1:0x111 / me=umh / subme=10 / psy=1 / psy_rd=1.00:0.00 / mixed_ref=1 / me_range=24 / chroma_me=1 / trellis=2 / 8x8dct=0 / cqm=0 / deadzone=21,11 / fast_pskip=1 / chroma_qp_offset=-2 / threads=8 / sliced_threads=0 / nr=0 / decimate=1 / interlaced=0 / bluray_compat=0 / constrained_intra=0 / bframes=2 / b_pyramid=0 / b_adapt=2 / b_bias=0 / direct=3 / weightb=1 / open_gop=0 / weightp=2 / keyint=48 / keyint_min=25 / scenecut=0 / intra_refresh=0 / rc_lookahead=0 / rc=2pass / mbtree=1 / bitrate=7500 / ratetol=1.0 / qcomp=0.50 / qpmin=6 / qpmax=51 / qpstep=4 / cplxblur=20.0 / qblur=0.5 / vbv_maxrate=11250 / vbv_bufsize=15000 / nal_hrd=vbr / ip_ratio=1.40 / aq=1:1.00
    Язык : English
    Default : Нет
    Forced : Нет

    Аудио #1
    Идентификатор : 2
    Формат : AC-3
    Формат/Информация : Audio Coding 3
    Расширение режима : CM (complete main)
    Параметр Endianness формата : Big
    Идентификатор кодека : A_AC3
    Продолжительность : 1 ч. 26 м.
    Вид битрейта : Постоянный
    Битрейт : 384 Кбит/сек
    Каналы : 6 каналов
    Расположение каналов : Front: L C R, Side: L R, LFE
    Частота : 48,0 КГц
    Частота кадров : 31,250 кадров/сек (1536 spf)
    Метод сжатия : С потерями
    Размер потока : 239 Мбайт (4%)
    Заголовок : MVO
    Язык : Russian
    Default : Нет
    Forced : Нет

    Аудио #2
    Идентификатор : 3
    Формат : AC-3
    Формат/Информация : Audio Coding 3
    Расширение режима : CM (complete main)
    Параметр Endianness формата : Big
    Идентификатор кодека : A_AC3
    Продолжительность : 1 ч. 26 м.
    Вид битрейта : Постоянный
    Битрейт : 384 Кбит/сек
    Каналы : 6 каналов
    Расположение каналов : Front: L C R, Side: L R, LFE
    Частота : 48,0 КГц
    Частота кадров : 31,250 кадров/сек (1536 spf)
    Метод сжатия : С потерями
    Размер потока : 239 Мбайт (4%)
    Заголовок : DVO Петр Иващенко (Гланц) и Инна Королева
    Язык : Russian
    Default : Нет
    Forced : Нет

    Аудио #3
    Идентификатор : 4
    Формат : AC-3
    Формат/Информация : Audio Coding 3
    Расширение режима : CM (complete main)
    Параметр Endianness формата : Big
    Идентификатор кодека : A_AC3
    Продолжительность : 1 ч. 26 м.
    Вид битрейта : Постоянный
    Битрейт : 384 Кбит/сек
    Каналы : 6 каналов
    Расположение каналов : Front: L C R, Side: L R, LFE
    Частота : 48,0 КГц
    Частота кадров : 31,250 кадров/сек (1536 spf)
    Метод сжатия : С потерями
    Размер потока : 239 Мбайт (4%)
    Язык : English
    Default : Нет
    Forced : Нет

    Текст #1
    Идентификатор : 5
    Формат : UTF-8
    Идентификатор кодека : S_TEXT/UTF8
    Идентификатор кодека/Информация : UTF-8 Plain Text
    Язык : Russian
    Default : Нет
    Forced : Нет

    Текст #2
    Идентификатор : 6
    Формат : UTF-8
    Идентификатор кодека : S_TEXT/UTF8
    Идентификатор кодека/Информация : UTF-8 Plain Text
    Заголовок : SDH
    Язык : English
    Default : Нет
    Forced : Нет

    Меню
    00:00:00.000 : en:Chapter 1
    00:06:49.000 : en:Chapter 2
    00:14:06.000 : en:Chapter 3
    00:21:31.000 : en:Chapter 4
    00:27:03.000 : en:Chapter 5
    00:34:58.000 : en:Chapter 6
    00:41:36.000 : en:Chapter 7
    00:48:56.000 : en:Chapter 8
    00:53:22.000 : en:Chapter 9
    00:57:24.000 : en:Chapter 10
    01:05:45.000 : en:Chapter 11
    01:18:21.000 : en:Chapter 12
    Свернуть


    [img]https://a.radikal.ru/a15/1807/a3/a4251ca39179.jpg[/img][img]https://c.radikal.ru/c39/1807/66/ddbfed99eea9.jpg[/img][img]https://d.radikal.ru/d00/1807/bc/a2134c99e3fd.jpg[/img][img]https://c.radikal.ru/c08/1807/bb/720c355aee12.jpg[/img]
    [img]https://a.radikal.ru/a37/1807/09/214936cc6a76.jpg[/img][img]https://a.radikal.ru/a11/1807/dd/096e60002ef6.jpg[/img][img]https://a.radikal.ru/a07/1807/3b/d01287c26370.jpg[/img][img]https://c.radikal.ru/c01/1807/55/19ae98907ab1.jpg[/img]
    Похожие раздачи Искать похожие
    Инструкция по скачиванию
     1  Качаем uTorrent версии 2.0 и выше
     2  После установки, жмем выше под постером на ссылку Скачать [MediaGet] или Скачать .torrent
     3  Открываем скачанный файл через соответствующий клиент: MediaGet или uTorrent
     4  Ждем пока подключатся участники
     5  Качаем
    Комментарии о  Джордж из джунглей 2 / George of the Jungle 2 | WEB-DL 1080p 
    Ближайшее в кино
    Вверх