• Игры для PS4
  • Игры для PS3
  • Игры для XBOX360
  • Игры для PC
  • Игры для PS2
  • Игры для PSP
  • Для телефонов
  • Музыка
  • Книги / Журналы
  • Обои
  • Опрос
    Откуда Вы о нас узнали?
      0
    • От знакомых2,1,false,300,full
    • Из социальных сетей2,2,false,300,full
    • Из поисковых систем2,3,false,300,full
    • Другое2,4,false,300,full
    Статистика
    Всего онлайн -
    Гостей -
    Пользователей -
    Короли трекера
    
    Благодарности () Закрыть
    Быстрее загружает сайты Экономит интернет—трафик Меняет оформление страницы ВК Блокирует всю рекламу на сайтах Загружает торренты как µTorrent клиент Объеденяет все твои чаты из соц. сетей в один Проигрывает твою музыку не заходя во ВКонтакте
    Новый интернет-браузер
    Orbitum
    Скачать
    и многое другое... Подробности на сайте производителя
    Информация о фильме
    Название: Вторжение динозавра
    Оригинальное название: Gwoemul
    Год выхода: 2006
    Жанр:  комедия, драма, ужасы, триллер
    Режиссер: Бон Джун-хо
    В ролях: Кан Хо Сон, Хие-бон Биун, Хаэ Ил Парк, Дэвид Джозеф Ансельмо, Клайнтон Морган

    О фильме:
    Во время утилизации формальдегида с американской военной базы в реку Хан выливается огромное количество токсичных веществ. Спустя некоторое время в реке заводится страшное чудище.

    Есть много желающих посидеть в Сеуле летом на берегу реки, и торговля там идёт бойко. У владельца ларька с пивом и закусками Хи-бона двое балбесов-сыновей и умница-дочка — известная на всю страну медалистка по стрельбе из лука. И конечно же старик, как и всё семейство, души не чает в единственной внучке Хён-со. И надо же было такому случиться, что речное чудовище одним погожим деньком вылезло погонять туристов по бережку и прихватило Хён-со с собой, а потом на глазах у простофили-отца проглотило девочку.



    Страна: Корея Южная
    Продолжительность: 01:59:54
    Перевод: Профессиональный многоголосый (Киномания), Профессиональный двухголосый (П.Гланц и И.Королева), Авторский (Ю.Сербин)

    Файл
    Кодек: AVC
    Качество: BDRip 720p
    Видео: 1280x694, 23.976 fps, 9009 Kbit/s
    Звук:
    Aудио#1: Russian: 48 kHz, AC3, 3/2 (L,C,R,l,r) + LFE ch, ~448.00 kbps avg |Многоголосый закадровый, Киномания|
    Aудио#2: Russian: 48 kHz, AC3, 3/2 (L,C,R,l,r) + LFE ch, ~384.00 kbps avg |Двухголосый закадровый, П.Гланц и И.Королева|
    Aудио#3: Russian: 48 kHz, DTS, 3/2 (L,C,R,l,r) + LFE ch, ~768.00 kbps avg |Одноголосый закадровый, Ю.Сербин|
    Aудио#4: Ukrainian: 48 kHz, AC3, 2/0 (L,R) ch, ~192.00 kbps avg |Многоголосый закадровый, ICTV|
    Aудио#5: Ukrainian: 48 kHz, AC3, 2/0 (L,R) ch, ~192.00 kbps avg |Двухголосый закадровый, 1+1|
    Aудио#6: Korean: 48 kHz, AC3, 3/2 (L,C,R,l,r) + LFE ch, ~640.00 kbps avg
    Aудио#7: English: 48 kHz, AAC, 2/0 (L,R) ch, ~80.00 kbps avg |Director Commentary|
    Субтитры: English

    MediaInfo
    General
    Unique ID: 241435321768934283696681683585126065307 (0xB5A2C067BA3C65E3B3B6CA41BD67649B)
    Complete name: The.Host.2006.720p.BluRay.3xRus.2xUkr.Kor.Eng.HDCLUB.mkv
    Format: Matroska
    Format version: Version 2
    File size: 9.95 GiB
    Duration: 1h 59mn
    Overall bit rate: 11.9 Mbps
    Movie name: HDClub present "The Counselor (2013)"
    Encoded date: UTC 2014-01-31 21:38:53
    Writing application: mkvmerge v3.4.0 ("Rapunzel") built on May 15 2010 09:38:20
    Writing library: libebml v0.8.0 + libmatroska v0.9.0

    Video
    ID: 1
    Format: AVC
    Format/Info: Advanced Video Codec
    Format profile: High@L4.1
    Format settings, CABAC: Yes
    Format settings, ReFrames: 8 frames
    Codec ID: V_MPEG4/ISO/AVC
    Duration: 1h 59mn
    Width: 1 280 pixels
    Height: 694 pixels
    Display aspect ratio: 1.85:1
    Frame rate mode: Constant
    Frame rate: 23.976 fps
    Color space: YUV
    Chroma subsampling: 4:2:0
    Bit depth: 8 bits
    Scan type: Progressive
    Writing library: x264 core 122 r2184 5c85e0a
    Encoding settings: cabac=1 / ref=8 / deblock=1:-3:-3 / analyse=0x3:0x113 / me=tesa / subme=11 / psy=1 / psy_rd=1.13:0.00 / mixed_ref=1 / me_range=16 / chroma_me=1 / trellis=2 / 8x8dct=1 / cqm=0 / deadzone=21,11 / fast_pskip=0 / chroma_qp_offset=-2 / threads=12 / sliced_threads=0 / nr=0 / decimate=0 / interlaced=0 / bluray_compat=0 / constrained_intra=0 / bframes=7 / b_pyramid=2 / b_adapt=2 / b_bias=0 / direct=3 / weightb=1 / open_gop=0 / weightp=2 / keyint=250 / keyint_min=23 / scenecut=40 / intra_refresh=0 / rc=crf / mbtree=0 / crf=18.1 / qcomp=0.70 / qpmin=0 / qpmax=69 / qpstep=4 / ip_ratio=1.40 / pb_ratio=1.30 / aq=1:0.67
    Language: English
    Default: No
    Forced: No

    Audio #1
    ID: 2
    Format: AC-3
    Format/Info: Audio Coding 3
    Mode extension: CM (complete main)
    Format settings, Endianness: Big
    Codec ID: A_AC3
    Duration: 1h 59mn
    Bit rate mode: Constant
    Bit rate: 448 Kbps
    Channel count: 6 channels
    Channel positions: Front: L C R, Side: L R, LFE
    Sampling rate: 48.0 KHz
    Bit depth: 16 bits
    Compression mode: Lossy
    Stream size: 384 MiB (4%)
    Title: AC3 5.1 @ 448 kbps - MVO, Kinomania
    Language: Russian
    Default: Yes
    Forced: No

    Audio #2
    ID: 3
    Format: AC-3
    Format/Info: Audio Coding 3
    Mode extension: CM (complete main)
    Format settings, Endianness: Big
    Codec ID: A_AC3
    Duration: 1h 59mn
    Bit rate mode: Constant
    Bit rate: 384 Kbps
    Channel count: 6 channels
    Channel positions: Front: L C R, Side: L R, LFE
    Sampling rate: 48.0 KHz
    Bit depth: 16 bits
    Compression mode: Lossy
    Stream size: 329 MiB (3%)
    Title: AC3 5.1 @ 384 kbps - DVO, Glanz+Koroleva
    Language: Russian
    Default: No
    Forced: No

    Audio #3
    ID: 4
    Format: DTS
    Format/Info: Digital Theater Systems
    Mode: 16
    Format settings, Endianness: Big
    Codec ID: A_DTS
    Duration: 1h 59mn
    Bit rate mode: Constant
    Bit rate: 755 Kbps
    Channel count: 6 channels
    Channel positions: Front: L C R, Side: L R, LFE
    Sampling rate: 48.0 KHz
    Bit depth: 24 bits
    Compression mode: Lossy
    Stream size: 647 MiB (6%)
    Title: DTS 5.1 @ 768 kbps - AVO, Y.Serbin
    Language: Russian
    Default: No
    Forced: No

    Audio #4
    ID: 5
    Format: AC-3
    Format/Info: Audio Coding 3
    Mode extension: CM (complete main)
    Format settings, Endianness: Big
    Codec ID: A_AC3
    Duration: 1h 59mn
    Bit rate mode: Constant
    Bit rate: 192 Kbps
    Channel count: 2 channels
    Channel positions: Front: L R
    Sampling rate: 48.0 KHz
    Bit depth: 16 bits
    Compression mode: Lossy
    Stream size: 165 MiB (2%)
    Title: AC3 2.0 @ 192 kbps - MVO, ICTV
    Language: Ukrainian
    Default: No
    Forced: No

    Audio #5
    ID: 6
    Format: AC-3
    Format/Info: Audio Coding 3
    Mode extension: CM (complete main)
    Format settings, Endianness: Big
    Codec ID: A_AC3
    Duration: 1h 59mn
    Bit rate mode: Constant
    Bit rate: 192 Kbps
    Channel count: 2 channels
    Channel positions: Front: L R
    Sampling rate: 48.0 KHz
    Bit depth: 16 bits
    Compression mode: Lossy
    Stream size: 165 MiB (2%)
    Title: AC3 2.0 @ 192 kbps - DVO, 1+1
    Language: Ukrainian
    Default: No
    Forced: No

    Audio #6
    ID: 7
    Format: AC-3
    Format/Info: Audio Coding 3
    Mode extension: CM (complete main)
    Format settings, Endianness: Big
    Codec ID: A_AC3
    Duration: 1h 59mn
    Bit rate mode: Constant
    Bit rate: 640 Kbps
    Channel count: 6 channels
    Channel positions: Front: L C R, Side: L R, LFE
    Sampling rate: 48.0 KHz
    Bit depth: 16 bits
    Compression mode: Lossy
    Delay relative to video: 12ms
    Stream size: 549 MiB (5%)
    Title: AC3 5.1 @ 640 kbps
    Language: Korean
    Default: No
    Forced: No

    Audio #7
    ID: 8
    Format: AAC
    Format/Info: Advanced Audio Codec
    Format profile: HE-AAC / LC
    Codec ID: A_AAC
    Duration: 1h 59mn
    Channel count: 2 channels
    Channel positions: Front: L R
    Sampling rate: 48.0 KHz / 24.0 KHz
    Compression mode: Lossy
    Delay relative to video: 33ms
    Title: Director Commentary
    Language: English
    Default: No
    Forced: No

    Text
    ID: 9
    Format: UTF-8
    Codec ID: S_TEXT/UTF8
    Codec ID/Info: UTF-8 Plain Text
    Language: English
    Default: No
    Forced: No

    Menu
    00:00:00.000: :00:00:00.000
    00:05:55.981: :00:05:57.857
    00:14:53.768: :00:14:55.644
    00:24:28.426: :00:24:30.302
    00:33:06.360: :00:33:08.236
    00:42:23.375: :00:42:25.251
    00:50:58.806: :00:51:00.682
    00:54:21.592: :00:54:23.468
    01:00:36.425: :01:00:38.301
    01:05:11.616: :01:05:13.492
    01:16:42.557: :01:16:44.433
    01:25:34.546: :01:25:36.422
    01:29:15.851: :01:29:17.727
    01:33:40.198: :01:33:42.074
    01:39:16.951: :01:39:18.827
    01:44:41.442: :01:44:43.318Свернуть


    Похожие раздачи Искать похожие
    Инструкция по скачиванию
     1  Качаем uTorrent версии 2.0 и выше
     2  После установки, жмем выше под постером на ссылку Скачать [MediaGet] или Скачать .torrent
     3  Открываем скачанный файл через соответствующий клиент: MediaGet или uTorrent
     4  Ждем пока подключатся участники
     5  Качаем
    Комментарии о  Вторжение динозавра / Хозяин / Gwoemul / The Host | BDRip 720p 
    Ближайшее в кино
    Вверх