• Игры для PS4
  • Игры для PS3
  • Игры для XBOX360
  • Игры для PC
  • Игры для PS2
  • Игры для PSP
  • Для телефонов
  • Музыка
  • Книги / Журналы
  • Обои
  • Опрос
    Удобен ли сайт в использовании?
      0
    • Очень удобен, все понятно1,1,false,300,full
    • Удобен1,2,false,300,full
    • Средне1,3,false,300,full
    • Неудобен, трудно ориентироваться1,4,false,300,full
    • Совсем неудобен1,5,false,300,full
    Статистика
    Всего онлайн -
    Гостей -
    Пользователей -
    Короли трекера
    
    Благодарности () Закрыть
    Быстрее загружает сайты Экономит интернет—трафик Меняет оформление страницы ВК Блокирует всю рекламу на сайтах Загружает торренты как µTorrent клиент Объеденяет все твои чаты из соц. сетей в один Проигрывает твою музыку не заходя во ВКонтакте
    Новый интернет-браузер
    Оrbitum
    Скачать
    и многое другое... Подробности на сайте производителя
    Оригинальное название: Stewardess School
    Год выхода: 1986
    Страна: США
    Студия: Columbia Pictures, Delphi V Productions, Summa Entertainment Group
    Продолжительность: 01:32:24
    Жанр: боевик, комедия

    Режиссер: Кен Бланкато
    В ролях: Бретт Каллен, Мэри Кадоретт, Дон Мост, Сэндал Бергман, Уэнди Джо Спербер, Джуди Лэндерс, Деннис Бёркли, Джулия Монтгомери, Коринна Борер, Роб Полсен, ...

    Перевод:
    - Профессиональный (многоголосый, закадровый) СТС
    - Профессиональный (многоголосый, закадровый) Первый канал
    - Авторский (одноголосый, закадровый) Михалёв Алексей Михайлович
    - Любительский (одноголосый, закадровый) ?

    О фильме: Филоу Хендерсона и его друга Джорджа Банкла исключают за профнепригодность из летного училища. Не желая расставаться с мечтой об авиации, они поступают в школу стюардесс. С горем пополам ее заканчивают.
    В первом же полете новички сталкиваются с серьезными трудностями. самолет захватывает помешанный воздушный пират, с минуту на минуту может взорваться бомба, а тут еще вмешивается одурманенный наркотиками бизнесмен… Сможет ли приземлиться самолет, на борту которого столько проблем?…



    Кодек: x264
    Качество: HDTVRip 720p
    Видео: 1280x720, 5000 kbps, 23,976 fps
    Аудио #1: AC-3, 2 ch, 192 kbps (Rus) - MVO СТС
    Аудио #2: AC-3, 2 ch, 192 kbps (Rus) - MVO Первый канал
    Аудио #3: AC-3, 2 ch, 192 kbps (Rus) - AVO Михалёв Алексей Михайлович
    Аудио #4: AC-3, 2 ch, 192 kbps (Rus) - VO
    Аудио #5: AC-3, 2 ch, 192 kbps (Eng)
    Субтитры: нет
    Спасибо за исходник

    MediaInfo

    x264 [info]: frame I:947   Avg QP:14.57  size:101327
    x264 [info]: frame P:27371 Avg QP:17.34  size: 46266
    x264 [info]: frame B:104617 Avg QP:19.79  size: 20096
    x264 [info]: consecutive B-frames:  1.9%  2.6%  4.4% 18.7% 11.4% 43.8% 14.7%  1.5%  0.3%  0.6%  0.0%

    Общее
    Уникальный идентификатор : 192406758807349624509423924905864823062 (0x90C0319EC6461D6D860CAC607E578116)
    Полное имя : Школа стюардесс (Stewardess School) 1986 HDRip 720p.mkv
    Формат : Matroska
    Версия формата : Version 2
    Размер файла : 3,85 Гбайт
    Продолжительность : 1 ч. 32 м.
    Общий поток : 5962 Кбит/сек
    Дата кодирования : UTC 2018-07-06 06:10:52
    Программа кодирования : mkvmerge v4.0.0 ("The Stars were mine") сборка от Jun 6 2010 16:18:42
    Библиотека кодирования : libebml v1.0.0 + libmatroska v1.0.0

    Видео
    Идентификатор : 1
    Формат : AVC
    Формат/Информация : Advanced Video Codec
    Профиль формата : High@L4.1
    Параметр CABAC формата : Да
    Параметр ReFrames формата : 9 кадров
    Идентификатор кодека : V_MPEG4/ISO/AVC
    Продолжительность : 1 ч. 32 м.
    Битрейт : 5000 Кбит/сек
    Ширина : 1280 пикселей
    Высота : 720 пикселей
    Соотношение сторон : 16:9
    Режим частоты кадров : Постоянный
    Частота кадров : 23,976 (24000/1001) кадра/сек
    Цветовое пространство : YUV
    Субдискретизация насыщенности : 4:2:0
    Битовая глубина : 8 бит
    Тип развёртки : Прогрессивная
    Бит/(Пиксели*Кадры) : 0.226
    Размер потока : 3,15 Гбайт (82%)
    Библиотека кодирования : x264 core 146 r2538 121396c
    Настройки программы : cabac=1 / ref=9 / deblock=1:-1:-1 / analyse=0x3:0x133 / me=umh / subme=11 / psy=1 / psy_rd=1.00:0.00 / mixed_ref=1 / me_range=32 / chroma_me=1 / trellis=2 / 8x8dct=1 / cqm=0 / deadzone=21,11 / fast_pskip=0 / chroma_qp_offset=-2 / threads=12 / lookahead_threads=2 / sliced_threads=0 / nr=0 / decimate=0 / interlaced=0 / bluray_compat=0 / constrained_intra=0 / bframes=10 / b_pyramid=2 / b_adapt=2 / b_bias=0 / direct=3 / weightb=1 / open_gop=0 / weightp=2 / keyint=240 / keyint_min=23 / scenecut=40 / intra_refresh=0 / rc=2pass / mbtree=0 / bitrate=5000 / ratetol=1.0 / qcomp=0.60 / qpmin=0 / qpmax=69 / qpstep=4 / cplxblur=20.0 / qblur=0.5 / ip_ratio=1.40 / pb_ratio=1.30 / aq=3:0.80
    Язык : English
    Default : Нет
    Forced : Нет

    Аудио #1
    Идентификатор : 2
    Формат : AC-3
    Формат/Информация : Audio Coding 3
    Расширение режима : CM (complete main)
    Параметр Endianness формата : Big
    Идентификатор кодека : A_AC3
    Продолжительность : 1 ч. 32 м.
    Вид битрейта : Постоянный
    Битрейт : 192 Кбит/сек
    Каналы : 2 канала
    Расположение каналов : Front: L R
    Частота : 48,0 КГц
    Частота кадров : 31,250 кадров/сек (1536 spf)
    Метод сжатия : С потерями
    Размер потока : 127 Мбайт (3%)
    Заголовок : MVO СТС
    Язык : Russian
    Default : Нет
    Forced : Нет

    Аудио #2
    Идентификатор : 3
    Формат : AC-3
    Формат/Информация : Audio Coding 3
    Расширение режима : CM (complete main)
    Параметр Endianness формата : Big
    Идентификатор кодека : A_AC3
    Продолжительность : 1 ч. 32 м.
    Вид битрейта : Постоянный
    Битрейт : 192 Кбит/сек
    Каналы : 2 канала
    Расположение каналов : Front: L R
    Частота : 48,0 КГц
    Частота кадров : 31,250 кадров/сек (1536 spf)
    Метод сжатия : С потерями
    Размер потока : 127 Мбайт (3%)
    Заголовок : MVO Первый канал
    Язык : Russian
    Default : Нет
    Forced : Нет

    Аудио #3
    Идентификатор : 4
    Формат : AC-3
    Формат/Информация : Audio Coding 3
    Расширение режима : CM (complete main)
    Параметр Endianness формата : Big
    Идентификатор кодека : A_AC3
    Продолжительность : 1 ч. 32 м.
    Вид битрейта : Постоянный
    Битрейт : 192 Кбит/сек
    Каналы : 2 канала
    Расположение каналов : Front: L R
    Частота : 48,0 КГц
    Частота кадров : 31,250 кадров/сек (1536 spf)
    Метод сжатия : С потерями
    Размер потока : 127 Мбайт (3%)
    Заголовок : AVO Михалёв Алексей Михайлович [1944—1994]
    Язык : Russian
    Default : Нет
    Forced : Нет

    Аудио #4
    Идентификатор : 5
    Формат : AC-3
    Формат/Информация : Audio Coding 3
    Расширение режима : CM (complete main)
    Параметр Endianness формата : Big
    Идентификатор кодека : A_AC3
    Продолжительность : 1 ч. 32 м.
    Вид битрейта : Постоянный
    Битрейт : 192 Кбит/сек
    Каналы : 2 канала
    Расположение каналов : Front: L R
    Частота : 48,0 КГц
    Частота кадров : 31,250 кадров/сек (1536 spf)
    Метод сжатия : С потерями
    Размер потока : 127 Мбайт (3%)
    Заголовок : VO
    Язык : Russian
    Default : Нет
    Forced : Нет

    Аудио #5
    Идентификатор : 6
    Формат : AC-3
    Формат/Информация : Audio Coding 3
    Расширение режима : CM (complete main)
    Параметр Endianness формата : Big
    Идентификатор кодека : A_AC3
    Продолжительность : 1 ч. 32 м.
    Вид битрейта : Постоянный
    Битрейт : 192 Кбит/сек
    Каналы : 2 канала
    Расположение каналов : Front: L R
    Частота : 48,0 КГц
    Частота кадров : 31,250 кадров/сек (1536 spf)
    Метод сжатия : С потерями
    Размер потока : 127 Мбайт (3%)
    Язык : English
    Default : Нет
    Forced : Нет
    Свернуть


    [img]https://b.radikal.ru/b31/1807/99/00fb9d313d3b.jpg[/img][img]https://b.radikal.ru/b24/1807/9d/41eb3e444fe0.jpg[/img][img]https://a.radikal.ru/a23/1807/b7/8c8b2eb593d1.jpg[/img][img]https://b.radikal.ru/b12/1807/c5/da3ad2b89c25.jpg[/img]
    [img]https://d.radikal.ru/d09/1807/ba/f02a853cd673.jpg[/img][img]https://d.radikal.ru/d34/1807/e1/9b9b540372ab.jpg[/img][img]https://d.radikal.ru/d39/1807/4f/e4b81a6fc3dc.jpg[/img][img]https://d.radikal.ru/d08/1807/fd/047cfc12387c.jpg[/img]
    Похожие раздачи Искать похожие
    Инструкция по скачиванию
     1  Качаем uTorrent версии 2.0 и выше
     2  После установки, жмем выше под постером на ссылку Скачать [MediaGet] или Скачать .torrent
     3  Открываем скачанный файл через соответствующий клиент: MediaGet или uTorrent
     4  Ждем пока подключатся участники
     5  Качаем
    Комментарии о  Школа стюардесс / Stewardess School | HDRip 720p 
    Ближайшее в кино
    Вверх