• Игры для PS4
  • Игры для PS3
  • Игры для XBOX360
  • Игры для PC
  • Игры для PS2
  • Игры для PSP
  • Для телефонов
  • Музыка
  • Книги / Журналы
  • Обои
  • Опрос
    Удобен ли сайт в использовании?
      0
    • Очень удобен, все понятно1,1,false,300,full
    • Удобен1,2,false,300,full
    • Средне1,3,false,300,full
    • Неудобен, трудно ориентироваться1,4,false,300,full
    • Совсем неудобен1,5,false,300,full
    Статистика
    Всего онлайн -
    Гостей -
    Пользователей -
    Короли трекера
    
    Благодарности () Закрыть
    Быстрее загружает сайты Экономит интернет—трафик Меняет оформление страницы ВК Блокирует всю рекламу на сайтах Загружает торренты как µTorrent клиент Объеденяет все твои чаты из соц. сетей в один Проигрывает твою музыку не заходя во ВКонтакте
    Новый интернет-браузер
    Orbitum
    Скачать
    и многое другое... Подробности на сайте производителя
    Название: Поющий по кабакам / Человек из притона
    Оригинальное название: Honkytonk Man
    Год выпуска: 1982
    Выпущено: США, The Malpaso Company
    Жанр:  Комедия, драма, музыкальный
    Режиссер: Клинт Иствуд
    В ролях: Клинт Иствуд, Кайл Иствуд, Джон МакИнтайр, Алекса Кенин, Верна Блум, Мэтт Кларк, Бэрри Корбин, Джерри Хардин, Тим Томерсон, Мэйкон МакКэлмэн, Джо Регалбуто, Гэри Граббс, Ребекка Клемонс, Джонни Гимбл, Шелли Уэст, Линда Хопкинс, Портер Вагонер

    О фильме: Человек может отказаться от всего, но не от мечты. Подросток из семьи фермеров со Среднего Запада Америки начала ХХ-го века не хочет, как его предки, гнуть спину на хлопковых полях. Он мечтает изменить свою жизнь. И готов бороться за свою мечту… Уит, выросший в семье фермеров-переселенцев, мечтает вырваться из привычной кабалы быта. Случай приводит к ним его дядю по матери Реда Стовэлла — бродягу, выпивоху, талантливого музыканта и певца в стиле «кантри». Он направляется в город Нэшвилл, где его ждет прослушивание и, возможно, контракт. Это могло бы изменить его жизнь. Ред разглядел в мальчишке задатки музыканта и предлагает Уиту поехать с ним — попытать счастья…

    Продолжительность: 02:02:58
    Перевод: Профессиональный двухголосый, авторский
    Субтитры: Русские, английские
    Навигация по главам: Есть

    Файл
    Качество: WEB-DL 1080p
    Видео: MPEG-4 AVC, 11,8 Мбит/сек, 1920x1080, 23,976 кадра/сек
    Аудио #1: AC3, 2 ch, 192 Кбит/сек | Русский, профессиональный (двухголосый закадровый) НТВ+, со вставками А. Кашкина
    Аудио #2: AC3, 6 ch, 448 Кбит/сек | Русский, авторский (одноголосый закадровый) Александр Кашкин
    Аудио #3: AC3, 6 ch, 448 Кбит/сек | Английский, оригинал, DVD
    Аудио #4: EAC3, 2 ch, 224 Кбит/сек | Английский, оригинал, WEB



    Скриншоты
    [screen]https://img11.lostpic.net/2018/07/07/aa26d86d54514575d6e712bf82f8ef73.png[/screen][screen]https://img11.lostpic.net/2018/07/07/741327df04c59144223f17127589cb4d.png[/screen][screen]https://img11.lostpic.net/2018/07/07/7976744f72fdc991a30b9360abe94a1d.png[/screen][screen]https://img11.lostpic.net/2018/07/07/7e5d4e305aded0ed1d65fe70104b2902.png[/screen][screen]https://img11.lostpic.net/2018/07/07/9357bf606fbe082b29229aaeaade1670.png[/screen][screen]https://img11.lostpic.net/2018/07/07/ed16188b40f87ef3cf79fa77483bcec6.png[/screen][screen]https://img11.lostpic.net/2018/07/07/5e832cdad4e36cf2f8c58a465e00e780.png[/screen][screen]https://img11.lostpic.net/2018/07/07/424ec55b17e7253c28a257d929cd50ea.png[/screen]Свернуть


    Инфо-файл
    Общее
    Уникальный идентификатор                 : 189432897438395977848055575686351607987 (0x8E8372EF3AF340879B7821628A02D8B3)
    Полное имя                               : Поющий.по.кабакам.1982.WEB-DL.1080p.mkv
    Формат                                   : Matroska
    Версия формата                           : Version 2
    Размер файла                             : 11,5 Гбайт
    Продолжительность                        : 2 ч. 2 м.
    Режим общего битрейта                    : Переменный
    Общий поток                              : 13,4 Мбит/сек
    Дата кодирования                         : UTC 2018-07-07 16:02:13
    Программа кодирования                    : mkvmerge v5.8.0 ("No Sleep / Pillow") built on Sep  2 2012 15:37:04
    Библиотека кодирования                   : libebml v1.2.3 + libmatroska v1.3.0

    Видео
    Идентификатор                            : 1
    Формат                                   : AVC
    Формат/Информация                        : Advanced Video Codec
    Профиль формата                          : High@L4
    Настройки формата                        : CABAC / 4 Ref Frames
    Параметр CABAC формата                   : Да
    Параметр RefFrames формата               : 4 кадра
    Идентификатор кодека                     : V_MPEG4/ISO/AVC
    Продолжительность                        : 2 ч. 2 м.
    Вид битрейта                             : Переменный
    Битрейт                                  : 11,8 Мбит/сек
    Максимальный битрейт                     : 15,0 Мбит/сек
    Ширина                                   : 1920 пикселей
    Высота                                   : 1080 пикселей
    Соотношение сторон                       : 16:9
    Режим частоты кадров                     : Постоянный
    Частота кадров                           : 23,976 (24000/1001) кадра/сек
    Цветовое пространство                    : YUV
    Субдискретизация насыщенности            : 4:2:0
    Битовая глубина                          : 8 бит
    Тип развёртки                            : Прогрессивная
    Бит/(Пиксели*Кадры)                      : 0.237
    Размер потока                            : 10,1 Гбайт (88%)
    Библиотека кодирования                   : x264 core 148 r2623 d5b2374
    Настройки программы                      : cabac=1 / ref=4 / deblock=1:-1:-1 / analyse=0x3:0x133 / me=umh / subme=9 / psy=1 / psy_rd=1.00:0.15 / mixed_ref=1 / me_range=24 / chroma_me=1 / trellis=2 / 8x8dct=1 / cqm=0 / deadzone=21,11 / fast_pskip=1 / chroma_qp_offset=-3 / threads=34 / lookahead_threads=5 / sliced_threads=0 / nr=150 / decimate=1 / interlaced=0 / bluray_compat=0 / constrained_intra=0 / bframes=8 / b_pyramid=2 / b_adapt=2 / b_bias=0 / direct=3 / weightb=1 / open_gop=0 / weightp=2 / keyint=120 / keyint_min=61 / scenecut=0 / intra_refresh=0 / rc_lookahead=120 / rc=crf / mbtree=1 / crf=18.0 / qcomp=0.60 / qpmin=0 / qpmax=69 / qpstep=4 / vbv_maxrate=15000 / vbv_bufsize=31250 / crf_max=0.0 / nal_hrd=vbr / filler=0 / ip_ratio=1.40 / aq=3:1.00
    Язык                                     : English
    Default                                  : Да
    Forced                                   : Нет
    Цветовой диапазон                        : Limited
    Основные цвета                           : BT.709
    Характеристики трансфера                 : BT.709
    Коэффициенты матрицы                     : BT.709

    Аудио #1
    Идентификатор                            : 2
    Формат                                   : AC-3
    Формат/Информация                        : Audio Coding 3
    Идентификатор кодека                     : A_AC3
    Продолжительность                        : 2 ч. 2 м.
    Вид битрейта                             : Постоянный
    Битрейт                                  : 192 Кбит/сек
    Каналы                                   : 2 канала
    Расположение каналов                     : Front: L R
    Частота                                  : 48,0 КГц
    Частота кадров                           : 31,250 кадров/сек (1536 SPF)
    Битовая глубина                          : 16 бит
    Метод сжатия                             : С потерями
    Задержка видео                           : 15 мс.
    Размер потока                            : 169 Мбайт (1%)
    Заголовок                                : DVO | НТВ+
    Язык                                     : Russian
    По умолчанию                             : Да
    Принудительно                            : Нет

    Аудио #2
    Идентификатор                            : 3
    Формат                                   : AC-3
    Формат/Информация                        : Audio Coding 3
    Идентификатор кодека                     : A_AC3
    Продолжительность                        : 2 ч. 2 м.
    Вид битрейта                             : Постоянный
    Битрейт                                  : 448 Кбит/сек
    Каналы                                   : 6 каналов
    Расположение каналов                     : Front: L C R, Side: L R, LFE
    Частота                                  : 48,0 КГц
    Частота кадров                           : 31,250 кадров/сек (1536 SPF)
    Битовая глубина                          : 16 бит
    Метод сжатия                             : С потерями
    Размер потока                            : 394 Мбайт (3%)
    Заголовок                                : AVO | А. Кашкин
    Язык                                     : Russian
    По умолчанию                             : Нет
    Принудительно                            : Нет

    Аудио #3
    Идентификатор                            : 4
    Формат                                   : AC-3
    Формат/Информация                        : Audio Coding 3
    Идентификатор кодека                     : A_AC3
    Продолжительность                        : 2 ч. 2 м.
    Вид битрейта                             : Постоянный
    Битрейт                                  : 448 Кбит/сек
    Каналы                                   : 6 каналов
    Расположение каналов                     : Front: L C R, Side: L R, LFE
    Частота                                  : 48,0 КГц
    Частота кадров                           : 31,250 кадров/сек (1536 SPF)
    Битовая глубина                          : 16 бит
    Метод сжатия                             : С потерями
    Размер потока                            : 394 Мбайт (3%)
    Заголовок                                : Original | 5.1
    Язык                                     : English
    По умолчанию                             : Нет
    Принудительно                            : Нет

    Аудио #4
    Идентификатор                            : 5
    Формат                                   : E-AC-3
    Формат/Информация                        : Enhanced Audio Coding 3
    Идентификатор кодека                     : A_EAC3
    Продолжительность                        : 2 ч. 2 м.
    Вид битрейта                             : Постоянный
    Битрейт                                  : 224 Кбит/сек
    Каналы                                   : 2 канала
    Расположение каналов                     : Front: L R
    Частота                                  : 48,0 КГц
    Частота кадров                           : 187,500 кадров/сек (256 SPF)
    Метод сжатия                             : С потерями
    Размер потока                            : 197 Мбайт (2%)
    Заголовок                                : Original | 2.0
    Язык                                     : English
    По умолчанию                             : Нет
    Принудительно                            : Нет

    Текст #1
    Идентификатор                            : 6
    Формат                                   : UTF-8
    Идентификатор кодека                     : S_TEXT/UTF8
    Идентификатор кодека/Информация          : UTF-8 Plain Text
    Язык                                     : Russian
    По умолчанию                             : Нет
    Принудительно                            : Нет

    Текст #2
    Идентификатор                            : 7
    Формат                                   : UTF-8
    Идентификатор кодека                     : S_TEXT/UTF8
    Идентификатор кодека/Информация          : UTF-8 Plain Text
    Заголовок                                : 1
    Язык                                     : English
    По умолчанию                             : Нет
    Принудительно                            : Нет

    Текст #3
    Идентификатор                            : 8
    Формат                                   : UTF-8
    Идентификатор кодека                     : S_TEXT/UTF8
    Идентификатор кодека/Информация          : UTF-8 Plain Text
    Заголовок                                : 2
    Язык                                     : English
    По умолчанию                             : Нет
    Принудительно                            : Нет

    Текст #4
    Идентификатор                            : 9
    Формат                                   : UTF-8
    Идентификатор кодека                     : S_TEXT/UTF8
    Идентификатор кодека/Информация          : UTF-8 Plain Text
    Заголовок                                : SDH
    Язык                                     : English
    По умолчанию                             : Нет
    Принудительно                            : Нет

    Меню
    00:00:00.083                             : en:Storms Blowing In.
    00:04:39.445                             : en:Cleaning Up.
    00:08:35.181                             : en:Tennessee Dream.
    00:13:21.000                             : en:Out Of Tune.
    00:15:55.487                             : en:Pair-O-Dice Cafe.
    00:20:13.712                             : en:Chicken Snatchers.
    00:23:48.293                             : en:Telltale Signs.
    00:27:57.042                             : en:Jailbreak.
    00:30:32.831                             : en:Best Friend He"s Got.
    00:34:09.213                             : en:From Rush To Dust.
    00:38:07.618                             : en:Bull And A Bathtub.
    00:40:14.745                             : en:Songwriting.
    00:42:03.854                             : en:Station Kohp.
    00:45:37.401                             : en:Whit"s First Time.
    00:49:04.308                             : en:Arnspringer"s Plan.
    00:55:16.846                             : en:Not Quite A Robbery.
    00:57:51.668                             : en:Iou Collection.
    01:01:23.713                             : en:Moonglow In The Trunk.
    01:05:59.121                             : en:Oklahoma Highwey Patrol.
    01:10:12.374                             : en:Roadside Tune.
    01:14:51.820                             : en:Stuck In A One-Road Town.
    01:19:10.946                             : en:Intertwined Destinies.
    01:22:04.920                             : en:Top Hat Club.
    01:26:39.360                             : en:Memories Of Mary.
    01:32:24.071                             : en:Grand Ole Opry.
    01:34:09.310                             : en:Audition.
    01:37:38.352                             : en:$20 A Song.
    01:42:03.951                             : en:Recording Session.
    01:45:11.471                             : en:Last Chance.
    01:50:21.648                             : en:Not Long.
    01:53:52.992                             : en:Farewell.
    01:56:13.833                             : en:Returning The Key.
    01:59:26.159                             : en:End Credits.Свернуть


    Дополнительная информация
    • Исходник видео WEB-DL Amazon.Свернуть


    Сборка: [img]http://i1.imageban.ru/out/2018/02/13/db08a675822da337df05f97bda2ce544.gif[/img] [img]http://i2.imageban.ru/out/2018/06/09/3e40bafdab66c4a60d118eadd265cbc1.gif[/img]
    Похожие раздачи Искать похожие
    Инструкция по скачиванию
     1  Качаем uTorrent версии 2.0 и выше
     2  После установки, жмем выше под постером на ссылку Скачать [MediaGet] или Скачать .torrent
     3  Открываем скачанный файл через соответствующий клиент: MediaGet или uTorrent
     4  Ждем пока подключатся участники
     5  Качаем
    Комментарии о  Поющий по кабакам / Honkytonk Man | WEB-DL 1080p 
    Ближайшее в кино
    Вверх