• Игры для PS4
  • Игры для PS3
  • Игры для XBOX360
  • Игры для PC
  • Игры для PS2
  • Игры для PSP
  • Для телефонов
  • Музыка
  • Книги/Журналы
  • Обои
  •  
    Опрос
    Удобен ли сайт в использовании?
      0
    • Очень удобен, все понятно1,1,false,300,full
    • Удобен1,2,false,300,full
    • Средне1,3,false,300,full
    • Неудобен, трудно ориентироваться1,4,false,300,full
    • Совсем неудобен1,5,false,300,full
    Статистика
    Загрузка...
    Полет навигатора / Flight of the Navigator | BDRip 720p
    Статус  Проверено
    В закладки
    Модератор: Max

    Полет навигатора / Flight of the Navigator | BDRip 720p [Фильмы 1986] скачать торрентом/torrent бесплатно

    Год выхода
    Язык
    Закачал
    Max | 08 июля в 16ч 04м 18с
    Раздел
    Отзывов
    0
    Раздают: 20 Качают: 3 Скачали: 40 Размер: 5.43 GB
    Инфо о раздаче | Благодарности |
    0/5
    0
    0 5 0
    Поддержи нас — расскажи друзьям!
    Orbitum
    Новый интернет-браузер Быстрее загружает сайты Экономит интернет—трафик Меняет оформление страницы ВК Блокирует всю рекламу на сайтах Загружает торренты как

    µTorrent

    клиент
    Объеденяет все твои чаты из соц. сетей в один Проигрывает твою музыку не заходя во ВКонтакте
    Скачать и многое другое... Подробности на сайте производителя
    Полет навигатора / Flight of the Navigator

    Год выхода: 1986
    Страна: США, Норвегия
    Студия: New Star, Producers Sales Organization (PSO), Viking Films, Walt Disney Pictures
    Жанр:  Фантастика, приключения, семейный
    Продолжительность: 01:29:33
    Режиссер: Рэндэл Клайзер
    В ролях: Джои Крамер, Пол Рубенс, Вероника Картрайт, Клифф Де Янг, Сара Джессика Паркер, Мэтт Адлер, Ховард Хессеман, Роберт Смолл, Элби Уайтакер, Джонатан Сэнгер, Ирис Экер, Ричард Либерти, Рэймонд Форчион, Синтия Сакелин, Тед Бартщ, Жизелль Эллиотт, Бриджид Клири, Майкл Страно, Пэрррис Бакнер, Робин Питерсон

    О фильме: В 1978 году 12-летний мальчик не вернулся домой. Он считался пропавшим без вести в течение 8 лет. Но однажды он вернулся. Радости родных не было предела, но что случилось с ребенком? За эти годы он совсем не вырос, оставшись таким, как и много лет назад. Сам он не может ничего объяснить. Мальчик помнит только, что заблудился в лесу, потом упал, а когда очнулся, то обнаружил себя в 1986 году. Вскоре люди обнаружили нечто похожее на летающую тарелку, запутавшуюся в электрических проводах. Что это, совпадение, или мальчик действительно был похищен инопланетянами?



    Кодек: х264
    Качество: BDRip 720p
    Видео: MPEG-4 AVC, 7200 Кбит/с, 1280x720, 23.976 fps
    Аудио 1: Russian: 48 kHz, AC3, 2 ch, 192 kbps - DUB, Киностудия им. Горького
    Аудио 2: Russian: 48 kHz, AC3, 2 ch, 192 kbps - MVO, СТС
    Аудио 3: Russian: 48 kHz, AC3, 2 ch, 192 kbps - VO, Ray
    Аудио 4: Ukrainian: 48 kHz, AC3, 2 ch, 256 kbps - DUB
    Аудио 5: Ukrainian: 48 kHz, AC3, 2 ch, 192 kbps - MVO, Ентер фільм
    Аудио 6: English: 48 kHz, AC3, 6 ch, 448 kbps - Оригинал
    Субтитры: Русские, украинские, английские
    Главы: Есть

    Инфо файл

    x264 [info]: frame I:1036  Avg QP:16.80  size:169083
    x264 [info]: frame P:28254 Avg QP:19.35  size: 74748
    x264 [info]: frame B:99544 Avg QP:20.72  size: 25609

    Общее
    Уникальный идентификатор                 : 184313728207396308906229025738106223798 (0x8AA98867A74E5593B3DD3944E8A63CB6)
    Полное имя                               : H:коллекцияПолет навигатора 1986_BDRip 720p_KORSAR.mkv
    Формат                                   : Matroska
    Версия формата                           : Version 2
    Размер файла                             : 5,43 Гбайт
    Продолжительность                        : 1 ч. 29 м.
    Общий поток                              : 8675 Кбит/сек
    Название фильма                          : mister.hats
    Дата кодирования                         : UTC 2018-06-23 13:55:51
    Программа кодирования                    : mkvmerge v5.8.0 ("No Sleep / Pillow") built on Sep  2 2012 15:37:04
    Библиотека кодирования                   : libebml v1.2.3 + libmatroska v1.3.0

    Видео
    Идентификатор                            : 1
    Формат                                   : AVC
    Формат/Информация                        : Advanced Video Codec
    Профиль формата                          : High@L4.1
    Настройки формата                        : CABAC / 9 Ref Frames
    Параметр CABAC формата                   : Да
    Параметр RefFrames формата               : 9 кадров
    Идентификатор кодека                     : V_MPEG4/ISO/AVC
    Продолжительность                        : 1 ч. 29 м.
    Битрейт                                  : 7200 Кбит/сек
    Ширина                                   : 1280 пикселей
    Высота                                   : 720 пикселей
    Соотношение сторон                       : 16:9
    Режим частоты кадров                     : Постоянный
    Частота кадров                           : 23,976 (24000/1001) кадра/сек
    Цветовое пространство                    : YUV
    Субдискретизация насыщенности            : 4:2:0
    Битовая глубина                          : 8 бит
    Тип развёртки                            : Прогрессивная
    Бит/(Пиксели*Кадры)                      : 0.326
    Размер потока                            : 4,40 Гбайт (81%)
    Библиотека кодирования                   : x264 core 152 r2851kMod ba24899
    Настройки программы                      : cabac=1 / ref=9 / deblock=1:-2:-2 / analyse=0x3:0x113 / me=umh / subme=11 / psy=1 / fade_compensate=0.00 / psy_rd=1.00:0.02 / mixed_ref=1 / me_range=48 / chroma_me=1 / trellis=2 / 8x8dct=1 / cqm=0 / deadzone=21,11 / fast_pskip=0 / chroma_qp_offset=-3 / threads=12 / lookahead_threads=3 / sliced_threads=0 / nr=0 / decimate=0 / interlaced=0 / bluray_compat=0 / constrained_intra=0 / bframes=10 / b_pyramid=2 / b_adapt=2 / b_bias=0 / direct=3 / weightb=1 / open_gop=0 / weightp=2 / keyint=240 / keyint_min=23 / scenecut=40 / intra_refresh=0 / rc_lookahead=40 / rc=2pass / mbtree=0 / bitrate=7200 / ratetol=1.0 / qcomp=0.60 / qpmin=0 / qpmax=39 / qpstep=4 / cplxblur=20.0 / qblur=0.5 / vbv_maxrate=50000 / vbv_bufsize=62500 / nal_hrd=none / filler=0 / ip_ratio=1.25 / pb_ratio=1.30 / aq=1:1.00
    Язык                                     : English
    Default                                  : Да
    Forced                                   : Нет
    Цветовой диапазон                        : Limited
    Основные цвета                           : BT.709
    Характеристики трансфера                 : BT.709
    Коэффициенты матрицы                     : BT.709

    Аудио #1
    Идентификатор                            : 2
    Формат                                   : AC-3
    Формат/Информация                        : Audio Coding 3
    Режим                                    : Dolby Digital
    Параметр Endianness формата              : Big
    Идентификатор кодека                     : A_AC3
    Продолжительность                        : 1 ч. 29 м.
    Вид битрейта                             : Постоянный
    Битрейт                                  : 192 Кбит/сек
    Каналы                                   : 2 канала
    Расположение каналов                     : Front: L R
    Частота                                  : 48,0 КГц
    Частота кадров                           : 31,250 кадров/сек (1536 SPF)
    Битовая глубина                          : 16 бит
    Метод сжатия                             : С потерями
    Размер потока                            : 123 Мбайт (2%)
    Заголовок                                : Дубляж - Киностудия им. Горького
    Язык                                     : Russian
    Default                                  : Да
    Forced                                   : Нет

    Аудио #2
    Идентификатор                            : 3
    Формат                                   : AC-3
    Формат/Информация                        : Audio Coding 3
    Режим                                    : Dolby Digital
    Параметр Endianness формата              : Big
    Идентификатор кодека                     : A_AC3
    Продолжительность                        : 1 ч. 29 м.
    Вид битрейта                             : Постоянный
    Битрейт                                  : 192 Кбит/сек
    Каналы                                   : 2 канала
    Расположение каналов                     : Front: L R
    Частота                                  : 48,0 КГц
    Частота кадров                           : 31,250 кадров/сек (1536 SPF)
    Битовая глубина                          : 16 бит
    Метод сжатия                             : С потерями
    Размер потока                            : 123 Мбайт (2%)
    Заголовок                                : Профессиональный многоголосый - СТС
    Язык                                     : Russian
    Default                                  : Нет
    Forced                                   : Нет

    Аудио #3
    Идентификатор                            : 4
    Формат                                   : AC-3
    Формат/Информация                        : Audio Coding 3
    Режим                                    : Dolby Digital
    Параметр Endianness формата              : Big
    Идентификатор кодека                     : A_AC3
    Продолжительность                        : 1 ч. 29 м.
    Вид битрейта                             : Постоянный
    Битрейт                                  : 192 Кбит/сек
    Каналы                                   : 2 канала
    Расположение каналов                     : Front: L R
    Частота                                  : 48,0 КГц
    Частота кадров                           : 31,250 кадров/сек (1536 SPF)
    Битовая глубина                          : 16 бит
    Метод сжатия                             : С потерями
    Размер потока                            : 123 Мбайт (2%)
    Заголовок                                : Любительский одноголосый - Ray
    Язык                                     : Russian
    Default                                  : Нет
    Forced                                   : Нет

    Аудио #4
    Идентификатор                            : 5
    Формат                                   : AC-3
    Формат/Информация                        : Audio Coding 3
    Параметр Endianness формата              : Big
    Идентификатор кодека                     : A_AC3
    Продолжительность                        : 1 ч. 29 м.
    Вид битрейта                             : Постоянный
    Битрейт                                  : 256 Кбит/сек
    Каналы                                   : 2 канала
    Расположение каналов                     : Front: L R
    Частота                                  : 48,0 КГц
    Частота кадров                           : 31,250 кадров/сек (1536 SPF)
    Битовая глубина                          : 16 бит
    Метод сжатия                             : С потерями
    Размер потока                            : 164 Мбайт (3%)
    Заголовок                                : Дубляж
    Язык                                     : Ukrainian
    Default                                  : Нет
    Forced                                   : Нет

    Аудио #5
    Идентификатор                            : 6
    Формат                                   : AC-3
    Формат/Информация                        : Audio Coding 3
    Параметр Endianness формата              : Big
    Идентификатор кодека                     : A_AC3
    Продолжительность                        : 1 ч. 29 м.
    Вид битрейта                             : Постоянный
    Битрейт                                  : 192 Кбит/сек
    Каналы                                   : 2 канала
    Расположение каналов                     : Front: L R
    Частота                                  : 48,0 КГц
    Частота кадров                           : 31,250 кадров/сек (1536 SPF)
    Битовая глубина                          : 16 бит
    Метод сжатия                             : С потерями
    Размер потока                            : 123 Мбайт (2%)
    Заголовок                                : Профессиональный многоголосый - Ентер фільм
    Язык                                     : Ukrainian
    Default                                  : Нет
    Forced                                   : Нет

    Аудио #6
    Идентификатор                            : 7
    Формат                                   : AC-3
    Формат/Информация                        : Audio Coding 3
    Параметр Endianness формата              : Big
    Идентификатор кодека                     : A_AC3
    Продолжительность                        : 1 ч. 29 м.
    Вид битрейта                             : Постоянный
    Битрейт                                  : 448 Кбит/сек
    Каналы                                   : 6 каналов
    Расположение каналов                     : Front: L C R, Side: L R, LFE
    Частота                                  : 48,0 КГц
    Частота кадров                           : 31,250 кадров/сек (1536 SPF)
    Битовая глубина                          : 16 бит
    Метод сжатия                             : С потерями
    Размер потока                            : 287 Мбайт (5%)
    Язык                                     : English
    Default                                  : Нет
    Forced                                   : Нет

    Текст #1
    Идентификатор                            : 8
    Формат                                   : UTF-8
    Идентификатор кодека                     : S_TEXT/UTF8
    Идентификатор кодека/Информация          : UTF-8 Plain Text
    Язык                                     : Russian
    Default                                  : Нет
    Forced                                   : Нет

    Текст #2
    Идентификатор                            : 9
    Формат                                   : UTF-8
    Идентификатор кодека                     : S_TEXT/UTF8
    Идентификатор кодека/Информация          : UTF-8 Plain Text
    Язык                                     : Ukrainian
    Default                                  : Нет
    Forced                                   : Нет

    Текст #3
    Идентификатор                            : 10
    Формат                                   : UTF-8
    Идентификатор кодека                     : S_TEXT/UTF8
    Идентификатор кодека/Информация          : UTF-8 Plain Text
    Язык                                     : English
    Default                                  : Нет
    Forced                                   : Нет

    Меню
    00:00:00.000                             : en:00:00:00.000
    00:11:05.706                             : en:00:11:05.706
    00:21:46.138                             : en:00:21:46.138
    00:33:04.857                             : en:00:33:04.857
    00:39:57.186                             : en:00:39:57.186
    00:48:51.386                             : en:00:48:51.386
    01:00:58.363                             : en:01:00:58.363
    01:09:28.163                             : en:01:09:28.163
    01:19:17.752                             : en:01:19:17.752
    01:26:01.155                             : en:01:26:01.155
    01:29:32.950                             : en:01:29:32.950



    Скриншоты
    [img]https://img11.lostpic.net/2018/06/23/a1e2c8ee3c0b849746b03c83f1c3c7e7.png[/img][img]https://img11.lostpic.net/2018/06/23/6d41010f264deb05c2762b27246eae73.png[/img][img]https://img11.lostpic.net/2018/06/23/b3ab2f54f3a57f7f962b959b1daa8ffd.png[/img][img]https://img11.lostpic.net/2018/06/23/0c610857b95ff4ca4e221f49d7b9e78b.png[/img][img]https://img11.lostpic.net/2018/06/23/fdf4af9653c4773f7139e67e21151c65.png[/img][img]https://img11.lostpic.net/2018/06/23/6d2cb1d5c85c2ed66c6d7b32de3ba5ff.png[/img]  


    [img]http://s018.radikal.ru/i516/1710/ce/3eb1e0641821.gif[/img] [img]http://korsar.tv/images/VKontakte.gif[/img]
    Еще похожие »

    Как скачать?
    1. Качаем UTorrent версии 2.0 и выше отсюда
    2. После установки, жмем на ссылку Скачать торрент.
    3. Открываем его через utorrent.
    4. Ждем пока подключатся участники.
    5. Качаем.


    Комментарии о Полет навигатора / Flight of the Navigator | BDRip 720p
    Добавлять комментарии могут только зарегистрированные пользователи

    Зарегистрироваться или Войти


    Ближайшее в кино
    • Клуб миллиардеров дата выхода 19 июля 2018Клуб миллиардеров
      Дата выхода: 19 июля 2018
    • 848004|Паранормальное|19 июля 2018|200|300Паранормальное
      Дата выхода: 19 июля 2018
    • 993589|Килиманджара|19 июля 2018|200|300Килиманджара
      Дата выхода: 19 июля 2018
    • 1002560|Зои|19 июля 2018|200|300Зои
      Дата выхода: 19 июля 2018
    • 1025011|Офисный беспредел|19 июля 2018|200|300Офисный беспредел
      Дата выхода: 19 июля 2018
    • 1024435|Это чертово сердце|19 июля 2018|200|300Это чертово сердце
      Дата выхода: 19 июля 2018
    • 1169286|МУЛЬТ в кино. Выпуск №78. Наше лето!|21 июля 2018|200|300МУЛЬТ в кино. Выпуск №78. Наше лето!
      Дата выхода: 21 июля 2018
    • 926540|Миссия невыполнима: Последствия|26 июля 2018|200|300Миссия невыполнима: Последствия
      Дата выхода: 26 июля 2018
    • 992614|Обитатели|26 июля 2018|200|300Обитатели
      Дата выхода: 26 июля 2018
    • 854458|Белль и Себастьян: Приключения продолжаются|26 июля 2018|200|300Белль и Себастьян: Приключения продолжаются
      Дата выхода: 26 июля 2018
    • 1049478|Убежище дьявола|26 июля 2018|200|300Убежище дьявола
      Дата выхода: 26 июля 2018
    • 1008732|Мектуб, моя любовь|26 июля 2018|200|300Мектуб, моя любовь
      Дата выхода: 26 июля 2018
    • 1049447|Юные титаны, вперед!|26 июля 2018|200|300Юные титаны, вперед!
      Дата выхода: 26 июля 2018
    • 1067608|Свидетели|26 июля 2018|200|300Свидетели
      Дата выхода: 26 июля 2018
    • 933307|Опасная игра Слоун|2 августа 2018|200|300Опасная игра Слоун
      Дата выхода: 2 августа 2018
    Вверх