• Игры для PS4
  • Игры для PS3
  • Игры для XBOX360
  • Игры для PC
  • Игры для PS2
  • Игры для PSP
  • Для телефонов
  • Музыка
  • Книги / Журналы
  • Обои
  • Опрос
    Удобен ли сайт в использовании?
      0
    • Очень удобен, все понятно1,1,false,300,full
    • Удобен1,2,false,300,full
    • Средне1,3,false,300,full
    • Неудобен, трудно ориентироваться1,4,false,300,full
    • Совсем неудобен1,5,false,300,full
    Статистика
    Всего онлайн -
    Гостей -
    Пользователей -
    Короли трекера
    
    Благодарности () Закрыть
    Быстрее загружает сайты Экономит интернет—трафик Меняет оформление страницы ВК Блокирует всю рекламу на сайтах Загружает торренты как µTorrent клиент Объеденяет все твои чаты из соц. сетей в один Проигрывает твою музыку не заходя во ВКонтакте
    Новый интернет-браузер
    Оrbitum
    Скачать
    и многое другое... Подробности на сайте производителя
    Информация о фильме
    Название: Жажда смерти
    Оригинальное название: Death Wish
    Год выхода: 2018
    Жанр: Боевик, Триллер, Криминал
    Режиссер: Элай Рот
    В ролях: Брюс Уиллис, Винсент Д"Онофрио, Элизабет Шу, Камила Морроне, Дин Норрис, Бо Напп, Кимберли Элиз, Лен Кариу, Джек Кеси, Ронни Джин Блевинс

    О фильме:
    Пол Керси - хирург, привыкший вытаскивать людей с того света после криминальных разборок. Но после того, как его жена и дочь становятся жертвами уличной банды, а полиция бездействует, он берет карающий меч правосудия в свои руки. Видео изобретательных убийств преступников покоряют интернет-топы, а среди жителей города расходятся слухи о неуловимом народном мстителе, которому теперь принадлежит весь город. Он мстит бодро, весело и со вкусом.



    Страна: США
    Студия: Paramount Pictures, Metro-Goldwyn-Mayer
    Продолжительность: 01:46:43
    Перевод: Дублированный (iTunes)

    Файл
    Кодек: HEVC x265 10 bit
    Качество: BDRip-HEVC 1080p
    Видео: 1920x800 (2.40:1), 5157 Кбит/сек, 0.140 бит/(Пиксели*Кадры), 23,976 кадр/сек (24000/1001), HEVC (Main10@L.4.1@High) 10 бит
    Звук:
    Русская, AC3, 384 Кбит/сек, Front: L C R, Side: L R, LFE, 48,0 КГц (Дубляж iTunes)
    Английская, AC3, 448 Кбит/сек, Front: L C R, Side: L R, LFE, 48,0 КГц (Оригинал)
    Субтитры: Английские (полные, SDH)
    Разделение по главам: есть

    Семпл

    MediaInfo

    Общее
    Уникальный идентификатор                 : 199901513547775183160099207997993018670 (0x9663A18EEAE609571B2D15732920652E)
    Полное имя                               : H:HEVC 210 BITDeath Wish_2018_BDRip_1080p_[HEVC]_10bit_by XuMuK.mkv
    Формат                                   : Matroska
    Версия формата                           : Version 4 / Version 2
    Размер файла                             : 4,47 Гбайт
    Продолжительность                        : 1 ч. 46 м.
    Общий поток                              : 5992 Кбит/сек
    Название фильма                          : HEVC by XuMuK
    Дата кодирования                         : UTC 2018-07-08 11:53:36
    Программа кодирования                    : mkvmerge v23.0.0 ("The Bride Said No") 64-bit
    Библиотека кодирования                   : libebml v1.3.6 + libmatroska v1.4.9
    Обложка                                  : Yes
    Attachments                              : cover.jpg

    Видео
    Идентификатор                            : 1
    Формат                                   : HEVC
    Формат/Информация                        : High Efficiency Video Coding
    Профиль формата                          : Main 10@L4.1@High
    Идентификатор кодека                     : V_MPEGH/ISO/HEVC
    Продолжительность                        : 1 ч. 46 м.
    Битрейт                                  : 5157 Кбит/сек
    Ширина                                   : 1920 пикселей
    Высота                                   : 800 пикселей
    Соотношение сторон                       : 2,40:1
    Режим частоты кадров                     : Постоянный
    Частота кадров                           : 23,976 (24000/1001) кадра/сек
    Цветовое пространство                    : YUV
    Субдискретизация насыщенности            : 4:2:0
    Битовая глубина                          : 10 бит
    Бит/(Пиксели*Кадры)                      : 0.140
    Размер потока                            : 3,84 Гбайт (86%)
    Библиотека кодирования                   : x265 2.8+25-0a629ea6036b:[Windows][GCC 8.1.0][64 bit] 10bit
    Настройки программы                      : cpuid=1111039 / frame-threads=4 / numa-pools=16 / wpp / no-pmode / no-pme / no-psnr / no-ssim / log-level=2 / input-csp=1 / input-res=1920x800 / interlace=0 / total-frames=153534 / level-idc=41 / high-tier=1 / uhd-bd=0 / ref=5 / no-allow-non-conformance / no-repeat-headers / annexb / no-aud / no-hrd / info / hash=0 / no-temporal-layers / open-gop / min-keyint=23 / keyint=240 / gop-lookahead=0 / bframes=12 / b-adapt=2 / b-pyramid / bframe-bias=0 / rc-lookahead=60 / lookahead-slices=0 / scenecut=40 / radl=0 / no-intra-refresh / ctu=32 / min-cu-size=8 / rect / amp / max-tu-size=32 / tu-inter-depth=3 / tu-intra-depth=3 / limit-tu=1 / rdoq-level=1 / dynamic-rd=0.00 / no-ssim-rd / signhide / no-tskip / nr-intra=0 / nr-inter=0 / no-constrained-intra / no-strong-intra-smoothing / max-merge=3 / limit-refs=1 / limit-modes / me=3 / subme=7 / merange=57 / temporal-mvp / weightp / weightb / no-analyze-src-pics / deblock=-3:-3 / no-sao / no-sao-non-deblock / rd=6 / no-early-skip / rskip / no-fast-intra / no-tskip-fast / no-cu-lossless / no-b-intra / no-splitrd-skip / rdpenalty=0 / psy-rd=1.00 / psy-rdoq=1.00 / no-rd-refine / no-lossless / cbqpoffs=-2 / crqpoffs=-2 / rc=crf / crf=18.0 / qcomp=0.75 / qpstep=4 / stats-write=0 / stats-read=0 / vbv-maxrate=50000 / vbv-bufsize=50000 / vbv-init=0.9 / crf-max=0.0 / crf-min=0.0 / ipratio=1.40 / pbratio=1.30 / aq-mode=1 / aq-strength=1.00 / cutree / zone-count=1 / zones: / start-frame=144153 / end-frame=153534 / qp=35 / no-strict-cbr / qg-size=32 / no-rc-grain / qpmax=69 / qpmin=0 / no-const-vbv / sar=1 / overscan=0 / videoformat=5 / range=0 / colorprim=1 / transfer=1 / colormatrix=1 / chromaloc=0 / display-window=0 / max-cll=0,0 / min-luma=0 / max-luma=1023 / log2-max-poc-lsb=8 / vui-timing-info / vui-hrd-info / slices=1 / no-opt-qp-pps / no-opt-ref-list-length-pps / no-multi-pass-opt-rps / scenecut-bias=0.05 / no-opt-cu-delta-qp / no-aq-motion / no-hdr / no-hdr-opt / no-dhdr10-opt / no-idr-recovery-sei / analysis-reuse-level=5 / scale-factor=0 / refine-intra=0 / refine-inter=0 / refine-mv=0 / no-limit-sao / ctu-info=0 / no-lowpass-dct / refine-mv-type=0 / copy-pic=1 / max-ausize-factor=1.0 / no-dynamic-refine / no-single-sei
    Default                                  : Да
    Forced                                   : Нет
    Цветовой диапазон                        : Limited
    Основные цвета                           : BT.709
    Характеристики трансфера                 : BT.709
    Коэффициенты матрицы                     : BT.709

    Аудио #1
    Идентификатор                            : 2
    Формат                                   : AC-3
    Формат/Информация                        : Audio Coding 3
    Идентификатор кодека                     : A_AC3
    Продолжительность                        : 1 ч. 46 м.
    Вид битрейта                             : Постоянный
    Битрейт                                  : 384 Кбит/сек
    Каналы                                   : 6 каналов
    Расположение каналов                     : Front: L C R, Side: L R, LFE
    Частота                                  : 48,0 КГц
    Частота кадров                           : 31,250 кадров/сек (1536 SPF)
    Битовая глубина                          : 16 бит
    Метод сжатия                             : С потерями
    Размер потока                            : 293 Мбайт (6%)
    Заголовок                                : iTunes
    Язык                                     : Russian
    ServiceKind                              : Complete Main
    Default                                  : Да
    Forced                                   : Да

    Аудио #2
    Идентификатор                            : 3
    Формат                                   : AC-3
    Формат/Информация                        : Audio Coding 3
    Идентификатор кодека                     : A_AC3
    Продолжительность                        : 1 ч. 46 м.
    Вид битрейта                             : Постоянный
    Битрейт                                  : 448 Кбит/сек
    Каналы                                   : 6 каналов
    Расположение каналов                     : Front: L C R, Side: L R, LFE
    Частота                                  : 48,0 КГц
    Частота кадров                           : 31,250 кадров/сек (1536 SPF)
    Битовая глубина                          : 16 бит
    Метод сжатия                             : С потерями
    Размер потока                            : 342 Мбайт (7%)
    Заголовок                                : Оригинал
    Язык                                     : English
    ServiceKind                              : Complete Main
    Default                                  : Нет
    Forced                                   : Нет

    Текст #1
    Идентификатор                            : 4
    Формат                                   : UTF-8
    Идентификатор кодека                     : S_TEXT/UTF8
    Идентификатор кодека/Информация          : UTF-8 Plain Text
    Продолжительность                        : 1 ч. 39 м.
    Битрейт                                  : 63 бит/сек
    ElementCount                             : 1568
    Размер потока                            : 46,6 Кбайт (0%)
    Заголовок                                : Full
    Язык                                     : English
    Default                                  : Нет
    Forced                                   : Нет

    Текст #2
    Идентификатор                            : 5
    Формат                                   : UTF-8
    Идентификатор кодека                     : S_TEXT/UTF8
    Идентификатор кодека/Информация          : UTF-8 Plain Text
    Продолжительность                        : 1 ч. 43 м.
    Битрейт                                  : 69 бит/сек
    ElementCount                             : 1755
    Размер потока                            : 52,5 Кбайт (0%)
    Заголовок                                : SDH
    Язык                                     : English
    Default                                  : Нет
    Forced                                   : Нет

    Меню
    00:00:00.000                             : en:00:00:00.000
    00:05:39.089                             : en:00:05:39.089
    00:08:51.239                             : en:00:08:51.239
    00:11:55.798                             : en:00:11:55.798
    00:19:12.860                             : en:00:19:12.860
    00:24:34.139                             : en:00:24:34.139
    00:28:37.174                             : en:00:28:37.174
    00:32:45.964                             : en:00:32:45.964
    00:36:15.840                             : en:00:36:15.840
    00:43:49.168                             : en:00:43:49.168
    00:47:10.411                             : en:00:47:10.411
    00:53:49.518                             : en:00:53:49.518
    00:56:56.330                             : en:00:56:56.330
    01:00:27.082                             : en:01:00:27.082
    01:07:55.154                             : en:01:07:55.154
    01:11:16.564                             : en:01:11:16.564
    01:15:52.256                             : en:01:15:52.256
    01:19:23.926                             : en:01:19:23.926
    01:22:41.415                             : en:01:22:41.415
    01:25:43.889                             : en:01:25:43.889
    01:28:20.837                             : en:01:28:20.837
    01:31:24.813                             : en:01:31:24.813
    01:37:14.537                             : en:01:37:14.537
    01:40:07.585                             : en:01:40:07.585
    Свернуть


    Скриншоты
    [screen]https://img11.lostpic.net/2018/07/08/debc0fb357253f75cf76d8256f317e40.png[/screen][screen]https://img11.lostpic.net/2018/07/08/a71ee87caa8507aaac6d5461d56f8435.png[/screen][screen]https://img11.lostpic.net/2018/07/08/ed0a73039dccdfb7aac508baae4aadeb.png[/screen][screen]https://img11.lostpic.net/2018/07/08/3bb41f89ee4aae55d623f8a70eb1dc00.png[/screen][screen]https://img11.lostpic.net/2018/07/08/4820301da3b65fad6629a1ea6675ccbb.png[/screen][screen]https://img11.lostpic.net/2018/07/08/7d8ebeca5ee7cbab7857e4ee2cf9804d.png[/screen][screen]https://img11.lostpic.net/2018/07/08/a4917135add3af6d1c0e9ed46dcf907d.png[/screen][screen]https://img11.lostpic.net/2018/07/08/c021faa54751ed0f7f57ef97d0b0cdb1.png[/screen]Свернуть
    Похожие раздачи Искать похожие
    Инструкция по скачиванию
     1  Качаем uTorrent версии 2.0 и выше
     2  После установки, жмем выше под постером на ссылку Скачать [MediaGet] или Скачать .torrent
     3  Открываем скачанный файл через соответствующий клиент: MediaGet или uTorrent
     4  Ждем пока подключатся участники
     5  Качаем
    Комментарии о  Жажда смерти / Death Wish | BDRip-HEVC 1080p 
    Ближайшее в кино
    Вверх