• Игры для PS4
  • Игры для PS3
  • Игры для XBOX360
  • Игры для PC
  • Игры для PS2
  • Игры для PSP
  • Для телефонов
  • Музыка
  • Книги / Журналы
  • Обои
  • Опрос
    Удобен ли сайт в использовании?
      0
    • Очень удобен, все понятно1,1,false,300,full
    • Удобен1,2,false,300,full
    • Средне1,3,false,300,full
    • Неудобен, трудно ориентироваться1,4,false,300,full
    • Совсем неудобен1,5,false,300,full
    Статистика
    Всего онлайн -
    Гостей -
    Пользователей -
    Короли трекера
    
    Благодарности () Закрыть
    Быстрее загружает сайты Экономит интернет—трафик Меняет оформление страницы ВК Блокирует всю рекламу на сайтах Загружает торренты как µTorrent клиент Объеденяет все твои чаты из соц. сетей в один Проигрывает твою музыку не заходя во ВКонтакте
    Новый интернет-браузер
    Оrbitum
    Скачать
    и многое другое... Подробности на сайте производителя
    Информация о фильме
    Название: Идеальный дом
    Оригинальное название: Ideal Home
    Год выхода: 2018
    Жанр: Драма, комедия
    Режиссер: Эндрю Флеминг
    В ролях: Кейт Уолш, Пол Радд, Элисон Пилл, Джейк Макдорман, Стив Кугэн, Лора Каннингэм, Сара Минник, Джесси Люкен, Кассандра Рошелль Фетерс, Дженни Гэбриэлль и другие
    О фильме:
    Эрасмус и Пол живут весёлой и беззаботной жизнь, пока на пороге не возникает 10-летний парень - по его собственному заверению, внук Эрасмуса. Привычному существованию приходит конец.



    Страна: США, Remstar Studios, Baby Cow Films, Indieproduction
    Продолжительность: 01:31:46
    Перевод: Любительский (двухголосый закадровый) | HiWay Grope

    Файл
    Кодек: MPEG-4 AVC/x.264
    Качество: WEBRip 720p
    Видео: 1280x528, 25.000 fps, ~4347 kbps, 0.257 bit/pixel
    Звук:
    Аудио rus: AC3, 48 kHz, 6 ch, 384 Kbps
    Субтитры: отсутствуют

    Реклама: присутствует

    Семпл

    MediaInfo

    General
    Unique ID                   : 227331119247647164804149685264889320562 (0xAB0661883BD22961A541E94865669472)
    Complete name               : D:Ideal.Home.2018.720p.WEBRip.HiWayGropeIdeal.Home.2018.720p.WEBRip.HiWayGrope.mkv
    Format                      : Matroska
    Format version              : Version 2
    File size                   : 3.09 GiB
    Duration                    : 1 h 31 min
    Overall bit rate            : 4 827 kb/s
    Encoded date                : UTC 2018-07-08 08:05:38
    Writing application         : mkvmerge v3.3.0 ("Language") built on Mar 24 2010 14:59:24
    Writing library             : libebml v0.8.0 + libmatroska v0.9.0

    Video
    ID                          : 1
    Format                      : AVC
    Format/Info                 : Advanced Video Codec
    Format profile              : Main@L3.1
    Format settings             : CABAC / 3 Ref Frames
    Format settings, CABAC      : Yes
    Format settings, ReFrames   : 3 frames
    Codec ID                    : V_MPEG4/ISO/AVC
    Duration                    : 1 h 31 min
    Bit rate                    : 4 347 kb/s
    Width                       : 1 280 pixels
    Height                      : 528 pixels
    Display aspect ratio        : 2.40:1
    Frame rate mode             : Constant
    Frame rate                  : 25.000 FPS
    Standard                    : PAL
    Color space                 : YUV
    Chroma subsampling          : 4:2:0
    Bit depth                   : 8 bits
    Scan type                   : Progressive
    Bits/(Pixel*Frame)          : 0.257
    Stream size                 : 2.79 GiB (90%)
    Language                    : English
    Default                     : Yes
    Forced                      : No
    Color range                 : Limited
    Color primaries             : BT.601 NTSC
    Transfer characteristics    : BT.601
    Matrix coefficients         : BT.601

    Audio
    ID                          : 2
    Format                      : AC-3
    Format/Info                 : Audio Coding 3
    Codec ID                    : A_AC3
    Duration                    : 1 h 31 min
    Bit rate mode               : Constant
    Bit rate                    : 384 kb/s
    Channel(s)                  : 6 channels
    Channel positions           : Front: L C R, Side: L R, LFE
    Sampling rate               : 48.0 kHz
    Frame rate                  : 31.250 FPS (1536 SPF)
    Bit depth                   : 16 bits
    Compression mode            : Lossy
    Stream size                 : 252 MiB (8%)
    Service kind                : Complete Main
    Default                     : Yes
    Forced                      : No

    Свернуть


    Похожие раздачи Искать похожие
    Инструкция по скачиванию
     1  Качаем uTorrent версии 2.0 и выше
     2  После установки, жмем выше под постером на ссылку Скачать [MediaGet] или Скачать .torrent
     3  Открываем скачанный файл через соответствующий клиент: MediaGet или uTorrent
     4  Ждем пока подключатся участники
     5  Качаем
    Комментарии о  Идеальный дом / Ideal Home | WEBRip 720p 
    Ближайшее в кино
    Вверх