• Игры для PS4
  • Игры для PS3
  • Игры для XBOX360
  • Игры для PC
  • Игры для PS2
  • Игры для PSP
  • Для телефонов
  • Музыка
  • Книги / Журналы
  • Обои
  • Опрос
    Откуда Вы о нас узнали?
      0
    • От знакомых2,1,false,300,full
    • Из социальных сетей2,2,false,300,full
    • Из поисковых систем2,3,false,300,full
    • Другое2,4,false,300,full
    Статистика
    Всего онлайн -
    Гостей -
    Пользователей -
    Короли трекера
    
    Благодарности () Закрыть
    Быстрее загружает сайты Экономит интернет—трафик Меняет оформление страницы ВК Блокирует всю рекламу на сайтах Загружает торренты как µTorrent клиент Объеденяет все твои чаты из соц. сетей в один Проигрывает твою музыку не заходя во ВКонтакте
    Новый интернет-браузер
    Orbitum
    Скачать
    и многое другое... Подробности на сайте производителя
    Информация о фильме
    Название: Идеальный дом
    Оригинальное название: Ideal Home
    Год выхода: 2018
    Жанр: Драма, комедия
    Режиссер: Эндрю Флеминг
    В ролях: Кейт Уолш, Пол Радд, Элисон Пилл, Джейк Макдорман, Стив Кугэн, Лора Каннингэм, Сара Минник, Джесси Люкен, Кассандра Рошелль Фетерс, Дженни Гэбриэлль и другие
    О фильме:
    Эрасмус и Пол живут весёлой и беззаботной жизнь, пока на пороге не возникает 10-летний парень - по его собственному заверению, внук Эрасмуса. Привычному существованию приходит конец.



    Страна: США, Remstar Studios, Baby Cow Films, Indieproduction
    Продолжительность: 01:31:46
    Перевод: Любительский (двухголосый закадровый) | HiWay Grope

    Файл
    Кодек: XviD
    Качество: WEBRip
    Видео: 720x304, 25 fps, ~1720 kbps, 0.31 bit/pixel
    Звук:
    Аудио rus: AC3, 48 kHz, 6 ch, 384 Kbps
    Субтитры: отсутствуют

    Реклама: присутствует

    Семпл

    MediaInfo

    General
    Complete name               : D:Ideal.Home.2018.WEBRip.HiWayGropeIdeal.Home.2018.WEBRip.HiWayGrope.avi
    Format                      : AVI
    Format/Info                 : Audio Video Interleave
    File size                   : 1.36 GiB
    Duration                    : 1 h 31 min
    Overall bit rate            : 2 114 kb/s
    Writing application         : VirtualDubMod 1.5.10.2 (build 2540/release)
    Writing library             : VirtualDubMod build 2540/release

    Video
    ID                          : 0
    Format                      : MPEG-4 Visual
    Format profile              : Advanced Simple@L5
    Format settings             : BVOP1
    Format settings, BVOP       : 1
    Format settings, QPel       : No
    Format settings, GMC        : No warppoints
    Format settings, Matrix     : Default (H.263)
    Codec ID                    : XVID
    Codec ID/Hint               : XviD
    Duration                    : 1 h 31 min
    Bit rate                    : 1 720 kb/s
    Width                       : 720 pixels
    Height                      : 304 pixels
    Display aspect ratio        : 2.40:1
    Frame rate                  : 25.000 FPS
    Color space                 : YUV
    Chroma subsampling          : 4:2:0
    Bit depth                   : 8 bits
    Scan type                   : Progressive
    Compression mode            : Lossy
    Bits/(Pixel*Frame)          : 0.314
    Stream size                 : 1.10 GiB (81%)
    Writing library             : XviD 67

    Audio
    ID                          : 1
    Format                      : AC-3
    Format/Info                 : Audio Coding 3
    Codec ID                    : 2000
    Duration                    : 1 h 31 min
    Bit rate mode               : Constant
    Bit rate                    : 384 kb/s
    Channel(s)                  : 6 channels
    Channel positions           : Front: L C R, Side: L R, LFE
    Sampling rate               : 48.0 kHz
    Frame rate                  : 31.250 FPS (1536 SPF)
    Bit depth                   : 16 bits
    Compression mode            : Lossy
    Stream size                 : 252 MiB (18%)
    Alignment                   : Split accross interleaves
    Interleave, duration        : 40  ms (1.00 video frame)
    Interleave, preload duratio : 500  ms
    Service kind                : Complete Main

    Свернуть


    Похожие раздачи Искать похожие
    Инструкция по скачиванию
     1  Качаем uTorrent версии 2.0 и выше
     2  После установки, жмем выше под постером на ссылку Скачать [MediaGet] или Скачать .torrent
     3  Открываем скачанный файл через соответствующий клиент: MediaGet или uTorrent
     4  Ждем пока подключатся участники
     5  Качаем
    Комментарии о  Идеальный дом / Ideal Home | WEBRip 
    Ближайшее в кино
    Вверх