• Игры для PS4
  • Игры для PS3
  • Игры для XBOX360
  • Игры для PC
  • Игры для PS2
  • Игры для PSP
  • Для телефонов
  • Музыка
  • Книги/Журналы
  • Обои
  •  
    Опрос
    Удобен ли сайт в использовании?
      0
    • Очень удобен, все понятно1,1,false,300,full
    • Удобен1,2,false,300,full
    • Средне1,3,false,300,full
    • Неудобен, трудно ориентироваться1,4,false,300,full
    • Совсем неудобен1,5,false,300,full
    Статистика
    Загрузка...
    Пророк / The Prophet / The Capital Conspiracy | DVDRip
    Статус  Проверено
    В закладки
    Модератор: Max

    Пророк / The Prophet / The Capital Conspiracy | DVDRip [Фильмы 1999] скачать торрентом/torrent бесплатно

    Год выхода
    Категории
    Язык
    Закачал
    Аноним | 08 июля в 19ч 12м 33с
    Раздел
    Отзывов
    0
    Раздают: 0 Качают: 0 Скачали: 0 Размер: 1.46 GB
    Инфо о раздаче | Благодарности |
    0/5
    0
    0 5 0
    Поддержи нас — расскажи друзьям!
    Orbitum
    Новый интернет-браузер Быстрее загружает сайты Экономит интернет—трафик Меняет оформление страницы ВК Блокирует всю рекламу на сайтах Загружает торренты как

    µTorrent

    клиент
    Объеденяет все твои чаты из соц. сетей в один Проигрывает твою музыку не заходя во ВКонтакте
    Скачать и многое другое... Подробности на сайте производителя
    Год выпуска: 1999
    Страна: США
    Жанр:  Боевик
    Продолжительность: 01:23:25
    Перевод: Профессиональный (многоголосый, закадровый)
    Русские субтитры: нет

    Режиссер: Фред Олен Рэй

    Сценарий: Рон МакКенан
    Продюсер: Ашок Амритрадж, Эндрю Стивенс, Роджер Корман, ...
    Оператор: Гэри Грейвер
    Композитор: Тим Винн
    Художник: Брайс Хольтшузен, Ira Proctor
    Монтаж: В. Питер Миллер

    В ролях: Дон «Дракон» Уилсон, Барбара Стил, Александр Кейт, Пол Майкл Робинсон, Артур Робертс, Рик Дин, Дженна Боднар, Сид Шэм, Чик Веннера, Миррон Е. Уиллис, Рик Дрейзин, Джо Роуз, Тед Монте, Арт Камачо

    Описание: Дон "Дракон" Уилсон в роли агента ЦРУ, которого забрали из сиротского дома и подвергли вместе с группой других детишек зверским экспериментам, развивая дар предвидения и предчувствия. Забыв об этом и вспоминая случившееся только во сне, он стал лучшим оперативником, усыновленным одним из сотрудников ЦРУ. Ему поручают найти и ликвидировать тех, кто в детстве вместе с ним был подопытным в секретной программе…



    Качество: DVDRip
    Формат: AVI
    Видео кодек: XviD
    Аудио кодек: AC3
    Видео: 704x528 (1.33:1), 25 fps, XviD build 50 ~2108 kbps avg, 0.23 bit/pixel
    Аудио: 48 kHz, AC3 Dolby Digital, 3/2 (L,C,R,l,r) + LFE ch, ~384.00 kbps avg

    Скриншоты

    [img]http://i27.fastpic.ru/big/2012/0117/d5/46c7e05533e95816d4372536787adad5.png[/img][img]http://i27.fastpic.ru/big/2012/0117/ff/ef290d5f6445600ab3f534951edd3fff.png[/img][img]http://i27.fastpic.ru/big/2012/0117/6e/6c869ba582e43239fff33d9abf58bb6e.png[/img][img]http://i31.fastpic.ru/big/2012/0117/6c/aa3c61e9ced04dc0e908bd5748fb806c.png[/img][img]http://i31.fastpic.ru/big/2012/0117/d8/420297bae1c5e44b7b8d4800246282d8.png[/img][img]http://i31.fastpic.ru/big/2012/0117/57/216819f91e2e5cb21282ba7cb8675857.png[/img][img]http://i31.fastpic.ru/big/2012/0117/bb/b2602a4f917ffdde9e97886f145423bb.png[/img][img]http://i31.fastpic.ru/big/2012/0117/1f/0e2f592eeeb25bc4d9a5191e73a15e1f.png[/img][img]http://i32.fastpic.ru/big/2012/0117/66/45358df86b3d3646242a071d73165a66.png[/img][img]http://i32.fastpic.ru/big/2012/0117/11/5974c6982f8c2b77c7b6bc600382ad11.png[/img][img]http://i32.fastpic.ru/big/2012/0117/70/9b29aed5a20addadaf7aebf864112070.png[/img][img]http://i32.fastpic.ru/big/2012/0117/c6/65558149f0eb253b3fda89b089cc55c6.png[/img]


    Медиаинфо

    General
    Complete name : D:фильмыprorok_1.46_[torrents.ru]_by_bm11.avi
    Format : AVI
    Format/Info : Audio Video Interleave
    File size : 1.46 GiB
    Duration : 1h 23mn
    Overall bit rate : 2 502 Kbps
    Writing application : VirtualDubMod 1.5.10.2 (build 2540/release)
    Writing library : VirtualDubMod build 2540/release
    Video
    Format : MPEG-4 Visual
    Format profile : Streaming Video@L1
    Format settings, BVOP : Yes
    Format settings, QPel : No
    Format settings, GMC : No warppoints
    Format settings, Matrix : Custom
    Codec ID : XVID
    Codec ID/Hint : XviD
    Duration : 1h 23mn
    Bit rate : 2 109 Kbps
    Width : 704 pixels
    Height : 528 pixels
    Display aspect ratio : 4/3
    Frame rate : 25.000 fps
    Resolution : 24 bits
    Colorimetry : 4:2:0
    Scan type : Progressive
    Bits/(Pixel*Frame) : 0.227
    Stream size : 1.23 GiB (84%)
    Writing library : XviD 50
    Audio
    Format : AC-3
    Format/Info : Audio Coding 3
    Codec ID : 2000
    Duration : 1h 23mn
    Bit rate mode : Constant
    Bit rate : 384 Kbps
    Channel(s) : 6 channels
    Channel positions : Front: L C R, Rear: L R, LFE
    Sampling rate : 48.0 KHz
    Stream size : 229 MiB (15%)
    Alignment : Split accross interleaves
    Interleave, duration : 40 ms (1.00 video frame)
    Interleave, preload duration : 500 ms
    Еще похожие »

    Как скачать?
    1. Качаем UTorrent версии 2.0 и выше отсюда
    2. После установки, жмем на ссылку Скачать торрент.
    3. Открываем его через utorrent.
    4. Ждем пока подключатся участники.
    5. Качаем.


    Комментарии о Пророк / The Prophet / The Capital Conspiracy | DVDRip
    Добавлять комментарии могут только зарегистрированные пользователи

    Зарегистрироваться или Войти


    Ближайшее в кино
    • Безумие Георга III дата выхода 20 ноября 2018Безумие Георга III
      Дата выхода: 20 ноября 2018
    • 7226|Догвилль|22 ноября 2018|200|300Догвилль
      Дата выхода: 22 ноября 2018
    • 1009784|Апгрейд|22 ноября 2018|200|300Апгрейд
      Дата выхода: 22 ноября 2018
    • 988782|Ральф против интернета|22 ноября 2018|200|300Ральф против интернета
      Дата выхода: 22 ноября 2018
    • 965901|Вдовы|22 ноября 2018|200|300Вдовы
      Дата выхода: 22 ноября 2018
    • 1011685|Нация убийц|22 ноября 2018|200|300Нация убийц
      Дата выхода: 22 ноября 2018
    • 891414|Жена|22 ноября 2018|200|300Жена
      Дата выхода: 22 ноября 2018
    • 934207|Мотылёк|22 ноября 2018|200|300Мотылёк
      Дата выхода: 22 ноября 2018
    • 1044912|Вечерняя школа|22 ноября 2018|200|300Вечерняя школа
      Дата выхода: 22 ноября 2018
    • 1036188|Быть Астрид Линдгрен|22 ноября 2018|200|300Быть Астрид Линдгрен
      Дата выхода: 22 ноября 2018
    • 1048852|Помешанный на времени|22 ноября 2018|200|300Помешанный на времени
      Дата выхода: 22 ноября 2018
    • 1049775|Подбросы|22 ноября 2018|200|300Подбросы
      Дата выхода: 22 ноября 2018
    • 1108741|Я — миллиардер|22 ноября 2018|200|300Я — миллиардер
      Дата выхода: 22 ноября 2018
    • 1118041|Три лица|22 ноября 2018|200|300Три лица
      Дата выхода: 22 ноября 2018
    • 1209190|МУЛЬТ в кино. Выпуск 85. Мамин праздник|24 ноября 2018|200|300МУЛЬТ в кино. Выпуск 85. Мамин праздник
      Дата выхода: 24 ноября 2018
    Вверх