• Игры для PS4
  • Игры для PS3
  • Игры для XBOX360
  • Игры для PC
  • Игры для PS2
  • Игры для PSP
  • Для телефонов
  • Музыка
  • Книги / Журналы
  • Обои
  • Опрос
    Удобен ли сайт в использовании?
      0
    • Очень удобен, все понятно1,1,false,300,full
    • Удобен1,2,false,300,full
    • Средне1,3,false,300,full
    • Неудобен, трудно ориентироваться1,4,false,300,full
    • Совсем неудобен1,5,false,300,full
    Статистика
    Всего онлайн -
    Гостей -
    Пользователей -
    Короли трекера
    
    Благодарности () Закрыть
    Быстрее загружает сайты Экономит интернет—трафик Меняет оформление страницы ВК Блокирует всю рекламу на сайтах Загружает торренты как µTorrent клиент Объеденяет все твои чаты из соц. сетей в один Проигрывает твою музыку не заходя во ВКонтакте
    Новый интернет-браузер
    Orbitum
    Скачать
    и многое другое... Подробности на сайте производителя
    Год выпуска: 1999
    Страна: США
    Жанр:  Боевик
    Продолжительность: 01:23:25
    Перевод: Профессиональный (многоголосый, закадровый)
    Русские субтитры: нет

    Режиссер: Фред Олен Рэй

    Сценарий: Рон МакКенан
    Продюсер: Ашок Амритрадж, Эндрю Стивенс, Роджер Корман, ...
    Оператор: Гэри Грейвер
    Композитор: Тим Винн
    Художник: Брайс Хольтшузен, Ira Proctor
    Монтаж: В. Питер Миллер

    В ролях: Дон «Дракон» Уилсон, Барбара Стил, Александр Кейт, Пол Майкл Робинсон, Артур Робертс, Рик Дин, Дженна Боднар, Сид Шэм, Чик Веннера, Миррон Е. Уиллис, Рик Дрейзин, Джо Роуз, Тед Монте, Арт Камачо

    Описание: Дон "Дракон" Уилсон в роли агента ЦРУ, которого забрали из сиротского дома и подвергли вместе с группой других детишек зверским экспериментам, развивая дар предвидения и предчувствия. Забыв об этом и вспоминая случившееся только во сне, он стал лучшим оперативником, усыновленным одним из сотрудников ЦРУ. Ему поручают найти и ликвидировать тех, кто в детстве вместе с ним был подопытным в секретной программе…



    Качество: DVDRip
    Формат: AVI
    Видео кодек: XviD
    Аудио кодек: AC3
    Видео: 704x528 (1.33:1), 25 fps, XviD build 50 ~2108 kbps avg, 0.23 bit/pixel
    Аудио: 48 kHz, AC3 Dolby Digital, 3/2 (L,C,R,l,r) + LFE ch, ~384.00 kbps avg

    Скриншоты

    [screen]http://i27.fastpic.ru/big/2012/0117/d5/46c7e05533e95816d4372536787adad5.png[/screen][screen]http://i27.fastpic.ru/big/2012/0117/ff/ef290d5f6445600ab3f534951edd3fff.png[/screen][screen]http://i27.fastpic.ru/big/2012/0117/6e/6c869ba582e43239fff33d9abf58bb6e.png[/screen][screen]http://i31.fastpic.ru/big/2012/0117/6c/aa3c61e9ced04dc0e908bd5748fb806c.png[/screen][screen]http://i31.fastpic.ru/big/2012/0117/d8/420297bae1c5e44b7b8d4800246282d8.png[/screen][screen]http://i31.fastpic.ru/big/2012/0117/57/216819f91e2e5cb21282ba7cb8675857.png[/screen][screen]http://i31.fastpic.ru/big/2012/0117/bb/b2602a4f917ffdde9e97886f145423bb.png[/screen][screen]http://i31.fastpic.ru/big/2012/0117/1f/0e2f592eeeb25bc4d9a5191e73a15e1f.png[/screen][screen]http://i32.fastpic.ru/big/2012/0117/66/45358df86b3d3646242a071d73165a66.png[/screen][screen]http://i32.fastpic.ru/big/2012/0117/11/5974c6982f8c2b77c7b6bc600382ad11.png[/screen][screen]http://i32.fastpic.ru/big/2012/0117/70/9b29aed5a20addadaf7aebf864112070.png[/screen][screen]http://i32.fastpic.ru/big/2012/0117/c6/65558149f0eb253b3fda89b089cc55c6.png[/screen]
    Свернуть


    Медиаинфо

    General
    Complete name : D:фильмыprorok_1.46_[torrents.ru]_by_bm11.avi
    Format : AVI
    Format/Info : Audio Video Interleave
    File size : 1.46 GiB
    Duration : 1h 23mn
    Overall bit rate : 2 502 Kbps
    Writing application : VirtualDubMod 1.5.10.2 (build 2540/release)
    Writing library : VirtualDubMod build 2540/release
    Video
    Format : MPEG-4 Visual
    Format profile : Streaming Video@L1
    Format settings, BVOP : Yes
    Format settings, QPel : No
    Format settings, GMC : No warppoints
    Format settings, Matrix : Custom
    Codec ID : XVID
    Codec ID/Hint : XviD
    Duration : 1h 23mn
    Bit rate : 2 109 Kbps
    Width : 704 pixels
    Height : 528 pixels
    Display aspect ratio : 4/3
    Frame rate : 25.000 fps
    Resolution : 24 bits
    Colorimetry : 4:2:0
    Scan type : Progressive
    Bits/(Pixel*Frame) : 0.227
    Stream size : 1.23 GiB (84%)
    Writing library : XviD 50
    Audio
    Format : AC-3
    Format/Info : Audio Coding 3
    Codec ID : 2000
    Duration : 1h 23mn
    Bit rate mode : Constant
    Bit rate : 384 Kbps
    Channel(s) : 6 channels
    Channel positions : Front: L C R, Rear: L R, LFE
    Sampling rate : 48.0 KHz
    Stream size : 229 MiB (15%)
    Alignment : Split accross interleaves
    Interleave, duration : 40 ms (1.00 video frame)
    Interleave, preload duration : 500 ms
    Свернуть
    Похожие раздачи Искать похожие
    Инструкция по скачиванию
     1  Качаем uTorrent версии 2.0 и выше
     2  После установки, жмем выше под постером на ссылку Скачать [MediaGet] или Скачать .torrent
     3  Открываем скачанный файл через соответствующий клиент: MediaGet или uTorrent
     4  Ждем пока подключатся участники
     5  Качаем
    Комментарии о  Пророк / The Prophet / The Capital Conspiracy | DVDRip 
    Ближайшее в кино
    Вверх