• Игры для PS4
  • Игры для PS3
  • Игры для XBOX360
  • Игры для PC
  • Игры для PS2
  • Игры для PSP
  • Для телефонов
  • Музыка
  • Книги/Журналы
  • Обои
  •  
    Опрос
    Откуда Вы о нас узнали?
      0
    • От знакомых2,1,false,300,full
    • Из социальных сетей2,2,false,300,full
    • Из поисковых систем2,3,false,300,full
    • Другое2,4,false,300,full
    Статистика
    Загрузка...
    Стыд / Skam [Сезон 02] | WEBRip 720p
    Статус  Проверено
    В закладки
    Модератор: Max

    Стыд / Skam [Сезон 02] | WEBRip 720p [Сериалы 2016] скачать торрентом/torrent бесплатно

    Год выхода
    Категории
    Язык
    Закачал
    Аноним | 08 июля в 20ч 07м 06с
    Раздел
    Отзывов
    0
    Раздают: 0 Качают: 0 Скачали: 0 Размер: 9.96 GB
    Инфо о раздаче | Благодарности |
    0/5
    0
    0 5 0
    Поддержи нас — расскажи друзьям!
    Orbitum
    Новый интернет-браузер Быстрее загружает сайты Экономит интернет—трафик Меняет оформление страницы ВК Блокирует всю рекламу на сайтах Загружает торренты как

    µTorrent

    клиент
    Объеденяет все твои чаты из соц. сетей в один Проигрывает твою музыку не заходя во ВКонтакте
    Скачать и многое другое... Подробности на сайте производителя
    Информация о фильме
    Год выхода: 2016
    Наименование: Стыд
    Оригинальное наименование: Skam
    Страна: Норвегия
    Жанр:  драма, мелодрама
    Режиссер постановщик: Юлие Андем
    В главных ролях: Юсефине Фрида Петтерсен, Иман Мескини, Ульрикке Фалк, Лиза Тейге, Тарьей Сандвик Му, Марлон Лангеланд, Томас Хэйес, Герман Томмераас

    О фильме: Сериал о жизни пяти подруг из старшей школы «Hartvig Nissens» в Осло. На примере Евы, Нуры, Вильде, Крис и Саны мы можем увидеть, какие события переживают норвежские подростки в повседневной жизни: первая любовь и измены, дружба и предательство, общественное порицание и популярность и, конечно, подготовка к выпуску.



    Файл
    Качество:  WEBRip 720p
    Видео данные: MKV, 1280x720 (16:9), 23.976 fps, 3468 Кбит/с
    Аудио данные: AAC, 2 ch, 192 Кбит/с
    Перевод: Любительский многоголосый (GreenРай Studio)
    Продолжительность: 12 x 00:26:00

    Медиаинфо
    General
    Unique ID                                : 241810546234005131842395342621191110202 (0xB5EB04664E6A959573C6D2CB2472FE3A)
    Complete name                            : D:ГРИНРАЙSkam.02.720p[WEB].Skam_s02e01.[720p].mkv
    Format                                   : Matroska
    Format version                           : Version 4 / Version 2
    File size                                : 699 MiB
    Duration                                 : 26 min 42 s
    Overall bit rate                         : 3 660 kb/s
    Encoded date                             : UTC 2018-07-07 12:08:05
    Writing application                      : mkvmerge v21.0.0 ("Tardigrades Will Inherit The Earth") 64-bit
    Writing library                          : libebml v1.3.5 + libmatroska v1.4.8

    Video
    ID                                       : 1
    Format                                   : AVC
    Format/Info                              : Advanced Video Codec
    Format profile                           : High@L3.1
    Format settings                          : CABAC / 1 Ref Frames
    Format settings, CABAC                   : Yes
    Format settings, RefFrames               : 1 frame
    Format settings, GOP                     : M=1, N=30
    Codec ID                                 : V_MPEG4/ISO/AVC
    Duration                                 : 26 min 42 s
    Bit rate                                 : 3 468 kb/s
    Width                                    : 1 280 pixels
    Height                                   : 720 pixels
    Display aspect ratio                     : 16:9
    Frame rate mode                          : Constant
    Frame rate                               : 23.976 (24000/1001) FPS
    Color space                              : YUV
    Chroma subsampling                       : 4:2:0
    Bit depth                                : 8 bits
    Scan type                                : Progressive
    Bits/(Pixel*Frame)                       : 0.157
    Stream size                              : 663 MiB (95%)
    Language                                 : English
    Default                                  : Yes
    Forced                                   : No

    Audio
    ID                                       : 2
    Format                                   : AAC
    Format/Info                              : Advanced Audio Codec
    Format profile                           : LC
    Codec ID                                 : A_AAC-2
    Duration                                 : 26 min 42 s
    Bit rate                                 : 192 kb/s
    Channel(s)                               : 2 channels
    Channel positions                        : Front: L R
    Sampling rate                            : 48.0 kHz
    Frame rate                               : 46.875 FPS (1024 SPF)
    Compression mode                         : Lossy
    Stream size                              : 36.2 MiB (5%)
    Language                                 : English
    Default                                  : Yes
    Forced                                   : No


    Внимание, имеется  видео и аудио реклама от спонсора показа

    Еще похожие »

    Как скачать?
    1. Качаем UTorrent версии 2.0 и выше отсюда
    2. После установки, жмем на ссылку Скачать торрент.
    3. Открываем его через utorrent.
    4. Ждем пока подключатся участники.
    5. Качаем.


    Комментарии о Стыд / Skam [Сезон 02] | WEBRip 720p
    Добавлять комментарии могут только зарегистрированные пользователи

    Зарегистрироваться или Войти


    Ближайшее в кино
    • Профессионал дата выхода 27 сентября 2018Профессионал
      Дата выхода: 27 сентября 2018
    • 650699|Человек, который убил Дон Кихота|27 сентября 2018|200|300Человек, который убил Дон Кихота
      Дата выхода: 27 сентября 2018
    • 1045777|Непрощенный|27 сентября 2018|200|300Непрощенный
      Дата выхода: 27 сентября 2018
    • 939411|Мотылек|27 сентября 2018|200|300Мотылек
      Дата выхода: 27 сентября 2018
    • 652531|Тайна дома с часами|27 сентября 2018|200|300Тайна дома с часами
      Дата выхода: 27 сентября 2018
    • 970196|Поиск|27 сентября 2018|200|300Поиск
      Дата выхода: 27 сентября 2018
    • 429363|Игрушки для взрослых|27 сентября 2018|200|300Игрушки для взрослых
      Дата выхода: 27 сентября 2018
    • 1049653|Сердце мира|27 сентября 2018|200|300Сердце мира
      Дата выхода: 27 сентября 2018
    • 794309|Букшоп|27 сентября 2018|200|300Букшоп
      Дата выхода: 27 сентября 2018
    • 1015929|3 дня с Роми Шнайдер|27 сентября 2018|200|3003 дня с Роми Шнайдер
      Дата выхода: 27 сентября 2018
    • 947047|Похитители носков|27 сентября 2018|200|300Похитители носков
      Дата выхода: 27 сентября 2018
    • 1115748|Руби и Повелитель воды|27 сентября 2018|200|300Руби и Повелитель воды
      Дата выхода: 27 сентября 2018
    • 983306|Нуреев: Его сцена – весь мир|29 сентября 2018|200|300Нуреев: Его сцена – весь мир
      Дата выхода: 29 сентября 2018
    • 463634|Веном|4 октября 2018|200|300Веном
      Дата выхода: 4 октября 2018
    • 998805|На районе|4 октября 2018|200|300На районе
      Дата выхода: 4 октября 2018
    Вверх