• Игры для PS4
  • Игры для PS3
  • Игры для XBOX360
  • Игры для PC
  • Игры для PS2
  • Игры для PSP
  • Для телефонов
  • Музыка
  • Книги / Журналы
  • Обои
  • Опрос
    Откуда Вы о нас узнали?
      0
    • От знакомых2,1,false,300,full
    • Из социальных сетей2,2,false,300,full
    • Из поисковых систем2,3,false,300,full
    • Другое2,4,false,300,full
    Статистика
    Всего онлайн -
    Гостей -
    Пользователей -
    Короли трекера
    
    Благодарности () Закрыть
    Быстрее загружает сайты Экономит интернет—трафик Меняет оформление страницы ВК Блокирует всю рекламу на сайтах Загружает торренты как µTorrent клиент Объеденяет все твои чаты из соц. сетей в один Проигрывает твою музыку не заходя во ВКонтакте
    Новый интернет-браузер
    Оrbitum
    Скачать
    и многое другое... Подробности на сайте производителя
    Информация о фильме
    Название: Праздничный переполох
    Оригинальное название: Le sens de la fête
    Год выхода: 2017
    Жанр: комедия
    Режиссер: Оливье Накаш, Эрик Толедано
    В ролях: Жан-Пьер Бакри, Жан-Поль Рув, Жиль Леллуш, Венсан Макен, Эй Айдара, Сюзанн Клеман, Элбан Иванов, Элен Венсан, Бенжамен Лаверн, Жюдит Шемла

    О фильме:
    Макс, организатор мероприятий, должен провести свадьбу в замке 17 века. Под его контролем всё: банкет, фотограф, повара и официанты. Казалось бы, что может пойти не так? Но, как известно, если что-то может случиться — оно обязательно случается.



    Страна: Бельгия, Канада, Франция
    Студия: A Plus Image 7, Canal+ [fr], Ciné, Cinémage 10 Développement, Indéfilms Initiative 4, TF1 Films Production, Gaumont
    Продолжительность: 01:50:45
    Перевод: профессиональный (дублированный) лицензия

    Файл
    Кодек: MPEG2
    Качество: DVD9 «НД Плэй»
    Видео: PAL 16:9 (720x576@1024x576) VBR 7741 Kbps, 25.000 fps
    Аудио 1: Dolby AC3, 6 ch, 48.0 KHz, 448 Kbps (русский)
    Аудио 2: Dolby AC3, 6 ch, 48.0 KHz, 448 Kbps (французский)
    Субтитры: русские

    MediaInfo
    Общее
    Полное имя : Le sens de la fete (2017) DVD9 R5VIDEO_TSVTS_09_3.VOB
    Формат : MPEG-PS
    Размер файла : 1000 Мбайт
    Продолжительность : 15 м. 51 с.
    Режим общего битрейта : Переменный
    Общий поток : 8812 Кбит/сек

    Видео
    Идентификатор : 224 (0xE0)
    Формат : MPEG Video
    Версия формата : Version 2
    Профиль формата : Main@Main
    Настройки формата : BVOP
    Параметр BVOP формата : Да
    Параметр матрицы формата : По умолчанию
    Параметр GOP формата : M=3, N=12
    Продолжительность : 15 м. 51 с.
    Вид битрейта : Переменный
    Битрейт : 7741 Кбит/сек
    Максимальный битрейт : 8500 Кбит/сек
    Ширина : 720 пикселей
    Высота : 576 пикселей
    Соотношение сторон : 16:9
    Частота кадров : 25,000 кадров/сек
    Стандарт вещания : PAL
    Цветовое пространство : YUV
    Субдискретизация насыщенности : 4:2:0
    Битовая глубина : 8 бит
    Тип развёртки : Прогрессивная
    Метод сжатия : С потерями
    Бит/(Пиксели*Кадры) : 0.747
    Временной код первого кадра : 00:32:16:02
    Оригинал временного кода : Group of pictures header
    Размер потока : 878 Мбайт (88%)

    Аудио #1
    Идентификатор : 189 (0xBD)-128 (0x80)
    Формат : AC-3
    Формат/Информация : Audio Coding 3
    Параметр Endianness формата : Big
    Режим смешивания : DVD-Video
    Продолжительность : 15 м. 51 с.
    Вид битрейта : Постоянный
    Битрейт : 448 Кбит/сек
    Каналы : 6 каналов
    Расположение каналов : Front: L C R, Side: L R, LFE
    Частота : 48,0 КГц
    Частота кадров : 31,250 кадров/сек (1536 SPF)
    Битовая глубина : 16 бит
    Метод сжатия : С потерями
    Задержка видео : -704 мс.
    Размер потока : 50,8 Мбайт (5%)

    Аудио #2
    Идентификатор : 189 (0xBD)-129 (0x81)
    Формат : AC-3
    Формат/Информация : Audio Coding 3
    Параметр Endianness формата : Big
    Режим смешивания : DVD-Video
    Продолжительность : 15 м. 51 с.
    Вид битрейта : Постоянный
    Битрейт : 448 Кбит/сек
    Каналы : 6 каналов
    Расположение каналов : Front: L C R, Side: L R, LFE
    Частота : 48,0 КГц
    Частота кадров : 31,250 кадров/сек (1536 SPF)
    Битовая глубина : 16 бит
    Метод сжатия : С потерями
    Задержка видео : -704 мс.
    Размер потока : 50,8 Мбайт (5%)

    Текст #1
    Идентификатор : 189 (0xBD)-32 (0x20)
    Формат : RLE
    Формат/Информация : Run-length encoding
    Режим смешивания : DVD-Video
    Продолжительность : 15 м. 47 с.
    Задержка видео : 2 с. 840 мс.

    Текст #2
    Идентификатор : 189 (0xBD)-33 (0x21)
    Формат : RLE
    Формат/Информация : Run-length encoding
    Режим смешивания : DVD-Video
    Продолжительность : 15 м. 47 с.
    Задержка видео : 2 с. 840 мс.

    МенюСвернуть


    Похожие раздачи Искать похожие
    Инструкция по скачиванию
     1  Качаем uTorrent версии 2.0 и выше
     2  После установки, жмем выше под постером на ссылку Скачать [MediaGet] или Скачать .torrent
     3  Открываем скачанный файл через соответствующий клиент: MediaGet или uTorrent
     4  Ждем пока подключатся участники
     5  Качаем
    Комментарии о  Праздничный переполох / Le sens de la fête | DVD9 
    Ближайшее в кино
    Вверх