• Игры для PS4
  • Игры для PS3
  • Игры для XBOX360
  • Игры для PC
  • Игры для PS2
  • Игры для PSP
  • Для телефонов
  • Музыка
  • Книги / Журналы
  • Обои
  • Опрос
    Удобен ли сайт в использовании?
      0
    • Очень удобен, все понятно1,1,false,300,full
    • Удобен1,2,false,300,full
    • Средне1,3,false,300,full
    • Неудобен, трудно ориентироваться1,4,false,300,full
    • Совсем неудобен1,5,false,300,full
    Статистика
    Всего онлайн -
    Гостей -
    Пользователей -
    Короли трекера
    
    Благодарности () Закрыть
    Быстрее загружает сайты Экономит интернет—трафик Меняет оформление страницы ВК Блокирует всю рекламу на сайтах Загружает торренты как µTorrent клиент Объеденяет все твои чаты из соц. сетей в один Проигрывает твою музыку не заходя во ВКонтакте
    Новый интернет-браузер
    Orbitum
    Скачать
    и многое другое... Подробности на сайте производителя
    Информация о фильме
    Название: Части тела
    Оригинальное название: Body Puzzle
    Год выхода: 1992
    Жанр: ужасы, триллер
    Режиссер: Ламберто Бава
    В ролях: Джоанна Пакула, Томас Арана, Франсуа Монтагю, Джанни Гарко, Эрика Бланк, Маттео Гаццоло, Сузанна Явиколи, Бруно Кораццари, Урсула фон Бачлер, Себастиано Ло Монако, Джованни Ломбардо Радице, Паоло Барони, Джанни Джулиано, Джузеппе Марини, Гуидо Квинтоцци, Франческо Романо, Джанна Паола Скаффиди, Мино Сферра

    Описание: Гомосексуалист Тим Белл теряет своего любовника Абе в мотоциклетной аварии…



    Страна: Италия
    Продолжительность: 01:38:38
    Перевод 1: Профессиональный (многоголосый закадровый) Студия ИНИС
    Перевод 2: Авторский (одноголосый закадровый) А. Мудров
    Субтитры: русские хардсаб, английские
    Оригинальная аудиодорожка: английский

    Файл
    Качество: BDRemux 1080р
    Видео: AVC / 1920x1080 / 16:9 / 23.976 fps / 34816 Kbps / High@L4.1
    Аудио 1: Rus: AC3 / 48.0 KHz / 2.0 / 192 kbps / MVO / Студия ИНИС
    Аудио 2: Rus: AC3 / 48.0 KHz / 2.0 / 192 kbps / AVO / А. Мудров
    Аудио 3: Eng: FLAC / 48.0 KHz / 2.0 / 610 kbps / 16bit

    Скриншоты
    [screen]https://img12.lostpic.net/2017/08/07/ed3584aefb6a8aba7eabe711cf2e770a.png[/screen][screen]https://img10.lostpic.net/2017/08/07/883f634415f210d99942a1b9a35e2ff2.png[/screen][screen]https://img11.lostpic.net/2017/08/07/f4cef00ae0c47dc865e0e88c2bdaf5b2.png[/screen]
    Свернуть


    MediaInfo
    Общее
    Уникальный идентификатор : 191098743929053550099326959072817980322 (0x8FC44781F5A4B1B5A3FC69FD63D423A2)
    Полное имя : I:Body.Puzzle.1992.BDRemux.1080p.mkv
    Формат : Matroska
    Версия формата : Version 4 / Version 2
    Размер файла : 24,7 Гбайт
    Продолжительность : 1 ч. 38 м.
    Режим общего битрейта : Переменный
    Общий поток : 35,8 Мбит/сек
    Название фильма : Body.Puzzle.1992.BDRemux.1080p-porvaliparus
    Дата кодирования : UTC 2017-08-07 02:08:28
    Программа кодирования : mkvmerge v13.0.0 ("The Juggler") 64bit
    Библиотека кодирования : libebml v1.3.4 + libmatroska v1.4.5

    Видео
    Идентификатор : 1
    Формат : AVC
    Формат/Информация : Advanced Video Codec
    Профиль формата : High@L4.1
    Параметр CABAC формата : Да
    Параметр RefFrames формата : 4 кадра
    Идентификатор кодека : V_MPEG4/ISO/AVC
    Продолжительность : 1 ч. 38 м.
    Вид битрейта : Постоянный
    Битрейт : 35,0 Мбит/сек / 35,0 Мбит/сек
    Ширина : 1920 пикселей
    Высота : 1080 пикселей
    Соотношение сторон : 16:9
    Режим частоты кадров : Постоянный
    Частота кадров : 23,976 (24000/1001) кадра/сек
    Стандарт вещания : Component
    Цветовое пространство : YUV
    Субдискретизация насыщенности : 4:2:0
    Битовая глубина : 8 бит
    Тип развёртки : Прогрессивная
    Бит/(Пиксели*Кадры) : 0.704
    Размер потока : 24,0 Гбайт (97%)
    Заголовок : Body.Puzzle.1992.BDRemux.1080p
    Библиотека кодирования : x264 core 144
    Настройки программы : cabac=1 / ref=4 / deblock=1:0:0 / analyse=0x3:0x113 / me=hex / subme=7 / psy=1 / psy_rd=1.00:0.00 / mixed_ref=1 / me_range=16 / chroma_me=1 / trellis=1 / 8x8dct=1 / cqm=1 / deadzone=21,11 / fast_pskip=1 / chroma_qp_offset=-2 / threads=6 / lookahead_threads=1 / sliced_threads=0 / slices=4 / nr=0 / decimate=1 / interlaced=0 / minigop=1 / stitchable=1 / constrained_intra=0 / bframes=2 / b_pyramid=0 / b_adapt=1 / b_bias=0 / direct=1 / weightb=1 / open_gop=1 / weightp=1 / keyint=24 / keyint_min=1 / scenecut=40 / intra_refresh=0 / rc_lookahead=24 / rc=cbr / mbtree=1 / bitrate=35000 / ratetol=1.0 / qcomp=0.60 / qpmin=3 / qpmax=69 / qpstep=4 / vbv_maxrate=35000 / vbv_bufsize=30000 / nal_hrd=cbr / filler=1 / ip_ratio=1.40 / aq=1:1.00
    Default : Да
    Forced : Нет
    Цветовой диапазон : Limited
    Основные цвета : BT.709
    Характеристики трансфера : BT.709
    Коэффициенты матрицы : BT.709

    Аудио #1
    Идентификатор : 2
    Формат : AC-3
    Формат/Информация : Audio Coding 3
    Параметр Endianness формата : Big
    Идентификатор кодека : A_AC3
    Продолжительность : 1 ч. 38 м.
    Вид битрейта : Постоянный
    Битрейт : 192 Кбит/сек
    Каналы : 2 канала
    Расположение каналов : Front: L R
    Частота : 48,0 КГц
    Частота кадров : 31,250 кадров/сек (1536 SPF)
    Битовая глубина : 16 бит
    Метод сжатия : С потерями
    Размер потока : 135 Мбайт (1%)
    Заголовок : MVO [Студия ИНИС]
    Язык : Russian
    Default : Да
    Forced : Нет

    Аудио #2
    Идентификатор : 3
    Формат : AC-3
    Формат/Информация : Audio Coding 3
    Параметр Endianness формата : Big
    Идентификатор кодека : A_AC3
    Продолжительность : 1 ч. 38 м.
    Вид битрейта : Постоянный
    Битрейт : 192 Кбит/сек
    Каналы : 2 канала
    Расположение каналов : Front: L R
    Частота : 48,0 КГц
    Частота кадров : 31,250 кадров/сек (1536 SPF)
    Битовая глубина : 16 бит
    Метод сжатия : С потерями
    Размер потока : 135 Мбайт (1%)
    Заголовок : AVO [А. Мудров]
    Язык : Russian
    Default : Нет
    Forced : Нет

    Аудио #3
    Идентификатор : 4
    Формат : FLAC
    Формат/Информация : Free Lossless Audio Codec
    Идентификатор кодека : A_FLAC
    Продолжительность : 1 ч. 38 м.
    Вид битрейта : Переменный
    Битрейт : 610 Кбит/сек
    Каналы : 2 канала
    Расположение каналов : Front: L R
    Частота : 48,0 КГц
    Частота кадров : 11,719 кадров/сек (4096 SPF)
    Битовая глубина : 16 бит
    Размер потока : 430 Мбайт (2%)
    Библиотека кодирования : libFLAC 1.2.1 (UTC 2007-09-17)
    Язык : English
    Default : Нет
    Forced : Нет

    Текст #1
    Идентификатор : 5
    Формат : UTF-8
    Идентификатор кодека : S_TEXT/UTF8
    Идентификатор кодека/Информация : UTF-8 Plain Text
    Продолжительность : 1 м. 30 с.
    Битрейт : 49 бит/сек
    ElementCount : 12
    Размер потока : 566 байт (0%)
    Язык : Russian
    Default : Да
    Forced : Нет

    Текст #2
    Идентификатор : 6
    Формат : UTF-8
    Идентификатор кодека : S_TEXT/UTF8
    Идентификатор кодека/Информация : UTF-8 Plain Text
    Продолжительность : 1 ч. 34 м.
    Битрейт : 38 бит/сек
    ElementCount : 1033
    Размер потока : 26,6 Кбайт (0%)
    Язык : English
    Default : Нет
    Forced : Нет

    Меню
    00:00:00.000 : en:Chapter 01
    00:11:52.962 : en:Chapter 02
    00:25:03.502 : en:Chapter 03
    00:36:22.847 : en:Chapter 04
    00:51:17.282 : en:Chapter 05
    01:06:15.763 : en:Chapter 06
    01:21:47.694 : en:Chapter 07
    01:32:15.947 : en:Chapter 08
    01:38:36.160 : en:Chapter 09Свернуть
    Похожие раздачи Искать похожие
    Инструкция по скачиванию
     1  Качаем uTorrent версии 2.0 и выше
     2  После установки, жмем выше под постером на ссылку Скачать [MediaGet] или Скачать .torrent
     3  Открываем скачанный файл через соответствующий клиент: MediaGet или uTorrent
     4  Ждем пока подключатся участники
     5  Качаем
    Комментарии о  Части тела / Body Puzzle | BDRemux 1080p 
    Ближайшее в кино
    Вверх