• Игры для PS4
  • Игры для PS3
  • Игры для XBOX360
  • Игры для PC
  • Игры для PS2
  • Игры для PSP
  • Для телефонов
  • Музыка
  • Книги / Журналы
  • Обои
  • Опрос
    Удобен ли сайт в использовании?
      0
    • Очень удобен, все понятно1,1,false,300,full
    • Удобен1,2,false,300,full
    • Средне1,3,false,300,full
    • Неудобен, трудно ориентироваться1,4,false,300,full
    • Совсем неудобен1,5,false,300,full
    Статистика
    Всего онлайн -
    Гостей -
    Пользователей -
    Короли трекера
    
    Благодарности () Закрыть
    Быстрее загружает сайты Экономит интернет—трафик Меняет оформление страницы ВК Блокирует всю рекламу на сайтах Загружает торренты как µTorrent клиент Объеденяет все твои чаты из соц. сетей в один Проигрывает твою музыку не заходя во ВКонтакте
    Новый интернет-браузер
    Orbitum
    Скачать
    и многое другое... Подробности на сайте производителя
    Название: Вдовья гора / Вдовий пик
    Оригинальное название: Widows" Peak
    Год выпуска: 1994
    Выпущено: США, British Screen Productions, Jo Manuel Productions, Rank Organisation
    Жанр:  Комедия, мелодрама, детектив
    Режиссер: Джон Ирвин
    В ролях: Миа Фэрроу, Джоан Плаурайт, Наташа Ричардсон, Адриан Данбар, Джим Бродбент, Энн Кент, Джон Кавана, Рина О"Грэйди, Джерард МакСорли, Майкл Джеймс Форд, Гарретт Кеох, Бритта Смит, Шейла Флиттон, Мэри Конми, Ингрид Крэйги, Дорин Кеог, Эйлин Колган, Оливер Магвайр, Фелим Дрю

    О фильме: Эта увлекательная и довольно загадочная история произошла в 20-х годах прошлого века в небольшом ирландском городке Килшеннон, единственной достопримечательностью которого являются его многочисленные вдовы. Как и положено, в городке есть свой элитный район с красноречивым названием "Вдовья гора". Здесь живут исключительно вдовы и исключительно с положением в обществе. За этим строго следит "главная" вдова, миссис Дойль–Конихан. Не следует, однако, думать, что над славным городом Килшеннон навеки зависло облако скорби, плача и вдовьих стенаний. Отнюдь! Дамам в черном есть чем заняться помимо оплакивания мужей, ушедших в мир иной. Тем более, что неожиданный приезд молодой и очень привлекательной американки Эдвины весьма "оживил" их неспешную размеренную жизнь. Самая тихая и самая бедная из жителей городка Кэти О"Хара вдруг заподозрила что-то неладное в отношении вновь прибывшей "безутешной" вдовы. В некогда мирном Килшенноне начались склоки, скандалы и очень странные происшествия. Между Кэтрин и Эдвиной началось жесткое противостояние не на жизнь, а насмерть...

    Продолжительность: 01:41:18
    Перевод: Профессиональный двухголосый
    Субтитры: Русские, английские, французские
    Навигация по главам: Есть

    Файл
    Качество: WEB-DL 1080p
    Видео: MPEG-4 AVC, 11,8 Мбит/сек, 1920x1080, 23,976 кадра/сек
    Аудио #1: AC3, 6 ch, 384 Кбит/сек | Русский, профессиональный (двухголосый закадровый)
    Аудио #2: AC3, 6 ch, 384 Кбит/сек | Английский, оригинал, DVD
    Аудио #3: EAC3, 2 ch, 224 Кбит/сек | Английский, оригинал, WEB



    Скриншоты
    [screen]https://img11.lostpic.net/2018/07/07/6353aeeb7237ca388d189316f7e5cc1b.png[/screen][screen]https://img11.lostpic.net/2018/07/07/302b23b0cc5a470d39c93fca4cd81c0b.png[/screen][screen]https://img11.lostpic.net/2018/07/07/2442b671c3b0761409978b9c656c5ce7.png[/screen][screen]https://img11.lostpic.net/2018/07/07/9ddacf93310e41b3f8d0b47a718e138a.png[/screen][screen]https://img11.lostpic.net/2018/07/07/39b7af7e8b2d61ef59fb14d8c2e5e83a.png[/screen][screen]https://img11.lostpic.net/2018/07/07/eaf8e08fb9cbb95bd341eda2e04ad4b3.png[/screen][screen]https://img11.lostpic.net/2018/07/07/29da1426fffd45f8f978496470ea7a99.png[/screen][screen]https://img11.lostpic.net/2018/07/07/8c331d292e7180897b7a738d003b5b8d.png[/screen]Свернуть


    Инфо-файл
    Общее
    Уникальный идентификатор                 : 211119764867748081474578023412801997888 (0x9ED4300D2D8B079FAC7458FFC3B40C40)
    Полное имя                               : Вдовья.гора.1994.WEB-DL.1080p.mkv
    Формат                                   : Matroska
    Версия формата                           : Version 2
    Размер файла                             : 9,24 Гбайт
    Продолжительность                        : 1 ч. 41 м.
    Режим общего битрейта                    : Переменный
    Общий поток                              : 13,1 Мбит/сек
    Дата кодирования                         : UTC 2018-07-07 21:12:13
    Программа кодирования                    : mkvmerge v5.8.0 ("No Sleep / Pillow") built on Sep  2 2012 15:37:04
    Библиотека кодирования                   : libebml v1.2.3 + libmatroska v1.3.0

    Видео
    Идентификатор                            : 1
    Формат                                   : AVC
    Формат/Информация                        : Advanced Video Codec
    Профиль формата                          : High@L4
    Настройки формата                        : CABAC / 4 Ref Frames
    Параметр CABAC формата                   : Да
    Параметр RefFrames формата               : 4 кадра
    Идентификатор кодека                     : V_MPEG4/ISO/AVC
    Продолжительность                        : 1 ч. 41 м.
    Вид битрейта                             : Переменный
    Битрейт                                  : 11,8 Мбит/сек
    Максимальный битрейт                     : 15,0 Мбит/сек
    Ширина                                   : 1920 пикселей
    Высота                                   : 1080 пикселей
    Соотношение сторон                       : 16:9
    Режим частоты кадров                     : Постоянный
    Частота кадров                           : 23,976 (24000/1001) кадра/сек
    Цветовое пространство                    : YUV
    Субдискретизация насыщенности            : 4:2:0
    Битовая глубина                          : 8 бит
    Тип развёртки                            : Прогрессивная
    Бит/(Пиксели*Кадры)                      : 0.238
    Размер потока                            : 8,36 Гбайт (90%)
    Язык                                     : English
    Default                                  : Да
    Forced                                   : Нет
    Цветовой диапазон                        : Limited
    Основные цвета                           : BT.709
    Характеристики трансфера                 : BT.709
    Коэффициенты матрицы                     : BT.709

    Аудио #1
    Идентификатор                            : 2
    Формат                                   : AC-3
    Формат/Информация                        : Audio Coding 3
    Идентификатор кодека                     : A_AC3
    Продолжительность                        : 1 ч. 41 м.
    Вид битрейта                             : Постоянный
    Битрейт                                  : 384 Кбит/сек
    Каналы                                   : 6 каналов
    Расположение каналов                     : Front: L C R, Side: L R, LFE
    Частота                                  : 48,0 КГц
    Частота кадров                           : 31,250 кадров/сек (1536 SPF)
    Битовая глубина                          : 16 бит
    Метод сжатия                             : С потерями
    Размер потока                            : 278 Мбайт (3%)
    Заголовок                                : DVO
    Язык                                     : Russian
    По умолчанию                             : Да
    Принудительно                            : Нет

    Аудио #2
    Идентификатор                            : 3
    Формат                                   : AC-3
    Формат/Информация                        : Audio Coding 3
    Идентификатор кодека                     : A_AC3
    Продолжительность                        : 1 ч. 41 м.
    Вид битрейта                             : Постоянный
    Битрейт                                  : 384 Кбит/сек
    Каналы                                   : 6 каналов
    Расположение каналов                     : Front: L C R, Side: L R, LFE
    Частота                                  : 48,0 КГц
    Частота кадров                           : 31,250 кадров/сек (1536 SPF)
    Битовая глубина                          : 16 бит
    Метод сжатия                             : С потерями
    Размер потока                            : 278 Мбайт (3%)
    Заголовок                                : Original | 5.1
    Язык                                     : English
    По умолчанию                             : Нет
    Принудительно                            : Нет

    Аудио #3
    Идентификатор                            : 4
    Формат                                   : E-AC-3
    Формат/Информация                        : Enhanced Audio Coding 3
    Идентификатор кодека                     : A_EAC3
    Продолжительность                        : 1 ч. 41 м.
    Вид битрейта                             : Постоянный
    Битрейт                                  : 224 Кбит/сек
    Каналы                                   : 2 канала
    Расположение каналов                     : Front: L R
    Частота                                  : 48,0 КГц
    Частота кадров                           : 187,500 кадров/сек (256 SPF)
    Метод сжатия                             : С потерями
    Размер потока                            : 162 Мбайт (2%)
    Заголовок                                : Original | 2.0
    Язык                                     : English
    По умолчанию                             : Нет
    Принудительно                            : Нет

    Текст #1
    Идентификатор                            : 5
    Формат                                   : UTF-8
    Идентификатор кодека                     : S_TEXT/UTF8
    Идентификатор кодека/Информация          : UTF-8 Plain Text
    Язык                                     : Russian
    По умолчанию                             : Нет
    Принудительно                            : Нет

    Текст #2
    Идентификатор                            : 6
    Формат                                   : UTF-8
    Идентификатор кодека                     : S_TEXT/UTF8
    Идентификатор кодека/Информация          : UTF-8 Plain Text
    Заголовок                                : 1
    Язык                                     : English
    По умолчанию                             : Нет
    Принудительно                            : Нет

    Текст #3
    Идентификатор                            : 7
    Формат                                   : UTF-8
    Идентификатор кодека                     : S_TEXT/UTF8
    Идентификатор кодека/Информация          : UTF-8 Plain Text
    Заголовок                                : 2
    Язык                                     : English
    По умолчанию                             : Нет
    Принудительно                            : Нет

    Текст #4
    Идентификатор                            : 8
    Формат                                   : UTF-8
    Идентификатор кодека                     : S_TEXT/UTF8
    Идентификатор кодека/Информация          : UTF-8 Plain Text
    Заголовок                                : SDH
    Язык                                     : English
    По умолчанию                             : Нет
    Принудительно                            : Нет

    Текст #5
    Идентификатор                            : 9
    Формат                                   : UTF-8
    Идентификатор кодека                     : S_TEXT/UTF8
    Идентификатор кодека/Информация          : UTF-8 Plain Text
    Язык                                     : French
    По умолчанию                             : Нет
    Принудительно                            : Нет

    Меню
    00:00:00.000                             : ru:Вступительные Титры
    00:02:00.969                             : ru:Маленькое Королевство
    00:12:37.355                             : ru:Безутешная Вдова
    00:29:29.741                             : ru:Танцевальный Марафон
    00:43:42.051                             : ru:Зуб за Зуб
    00:51:45.784                             : ru:Парусная Регата
    01:00:24.636                             : ru:Фальшивый Адмирал
    01:09:09.285                             : ru:День Помолвки
    01:19:51.802                             : ru:Проишествие на Озере
    01:28:10.342                             : ru:Святая Женщина
    01:31:38.633                             : ru:Угрызения Совести
    01:38:11.359                             : ru:Финальные ТитрыСвернуть


    Дополнительная информация
    • Исходник видео WEB-DL Amazon.Свернуть


    Сборка: [img]http://i1.imageban.ru/out/2018/02/13/db08a675822da337df05f97bda2ce544.gif[/img] [img]http://i2.imageban.ru/out/2018/06/09/3e40bafdab66c4a60d118eadd265cbc1.gif[/img]
    Похожие раздачи Искать похожие
    Инструкция по скачиванию
     1  Качаем uTorrent версии 2.0 и выше
     2  После установки, жмем выше под постером на ссылку Скачать [MediaGet] или Скачать .torrent
     3  Открываем скачанный файл через соответствующий клиент: MediaGet или uTorrent
     4  Ждем пока подключатся участники
     5  Качаем
    Комментарии о  Вдовья гора / Widows' Peak | WEB-DL 1080p 
    Ближайшее в кино
    Вверх