• Игры для PS4
  • Игры для PS3
  • Игры для XBOX360
  • Игры для PC
  • Игры для PS2
  • Игры для PSP
  • Для телефонов
  • Музыка
  • Книги / Журналы
  • Обои
  • Опрос
    Откуда Вы о нас узнали?
      0
    • От знакомых2,1,false,300,full
    • Из социальных сетей2,2,false,300,full
    • Из поисковых систем2,3,false,300,full
    • Другое2,4,false,300,full
    Статистика
    Всего онлайн -
    Гостей -
    Пользователей -
    Короли трекера
    
    Благодарности () Закрыть
    Быстрее загружает сайты Экономит интернет—трафик Меняет оформление страницы ВК Блокирует всю рекламу на сайтах Загружает торренты как µTorrent клиент Объеденяет все твои чаты из соц. сетей в один Проигрывает твою музыку не заходя во ВКонтакте
    Новый интернет-браузер
    Orbitum
    Скачать
    и многое другое... Подробности на сайте производителя
    Уайатт Эрп / Wyatt Earp


    Год выхода: 1994
    Страна: США
    Жанр:  Боевик, мелодрама, приключения, вестерн, биография
    Продолжительность: 03:10:35
    Перевод: Профессиональный (дублированный), Профессиональный (многоголосый закадровый), авторский
    Режиссер: Лоуренс Кэздан / Lawrence Kasdan
    В ролях: Кевин Костнер, Деннис Куэйд, Джин Хэкмен, Дэвид Эндрюс, Линден Эшби, Джефф Фэйи, Джоэнна Гоуинг, Марк Хэрмон, Майкл Мэдсен, Кэтрин О’Хара

    О фильме: Этот человек может в одиночку остановить взбесившуюся толпу и спокойно посмотреть в направленное на него дуло
    пистолета. Он с детства мечтал быть солдатом, но судьба уготовила ему не менее важную работу – должность шерифа на Диком
    Западе. Едва ли местные бандиты когда-либо боялись кого-то больше, чем Уайатта Эрпа, ведь он пришел сюда, чтобы навести
    порядок, и сделает это любой ценой. Позднее о шерифе из Аризоны будут рассказывать легенды, а пока у него слишком много
    работы, ведь в округе действует несколько банд, которые еще не поняли, что беспредела здесь больше не будет…

    [img]http://www.kinopoisk.ru/rating/9246.gif[/img]

    Кодек: х264
    Качество: BDRip 720p
    Видео: MPEG-4 AVC, 7500 Кбит/с, 1280x530, 23.976 fps
    Аудио 1: Русский, AC-3, 48.0 KHz, 2 ch, 192 Кбит/с, Дубляж
    Аудио 2: Русский, AC-3, 48.0 KHz, 2 ch, 192 Кбит/с, MVO
    Аудио 3: Русский, AC-3, 48.0 KHz, 2 ch, 192 Кбит/с, Живов
    Аудио 4: Русский, AC-3, 48.0 KHz, 6 ch, 640 Кбит/с, Гаврилов
    Аудио 5: Русский, AC-3, 48.0 KHz, 2 ch, 192 Кбит/с, Володарский
    Аудио 6: Английский, AC-3, 48.0 KHz, 6 ch, 640 Кбит/с
    Субтитры: Английские
    Главы: Есть

    Инфо файл

    x264 [info]: frame I:1625  Avg QP:17.81  size:142797
    x264 [info]: frame P:55813 Avg QP:20.17  size: 72892
    x264 [info]: frame B:216745 Avg QP:21.87  size: 29610

    Общее
    Уникальный идентификатор                 : 191626941889469617379878355736519156820 (0x902A01AD7FA2EAA4B1E86E0CBB52A454)
    Полное имя                               : H:коллекцияУайатт Эрп 1994_BDRip 720p_KORSAR.mkv
    Формат                                   : Matroska
    Версия формата                           : Version 2
    Размер файла                             : 12,7 Гбайт
    Продолжительность                        : 3 ч. 10 м.
    Общий поток                              : 9549 Кбит/сек
    Название фильма                          : mister.hats
    Дата кодирования                         : UTC 2018-07-08 09:43:45
    Программа кодирования                    : mkvmerge v5.8.0 ("No Sleep / Pillow") built on Sep  2 2012 15:37:04
    Библиотека кодирования                   : libebml v1.2.3 + libmatroska v1.3.0

    Видео
    Идентификатор                            : 1
    Формат                                   : AVC
    Формат/Информация                        : Advanced Video Codec
    Профиль формата                          : High@L4.1
    Настройки формата                        : CABAC / 12 Ref Frames
    Параметр CABAC формата                   : Да
    Параметр RefFrames формата               : 12 кадров
    Идентификатор кодека                     : V_MPEG4/ISO/AVC
    Продолжительность                        : 3 ч. 10 м.
    Битрейт                                  : 7500 Кбит/сек
    Ширина                                   : 1280 пикселей
    Высота                                   : 530 пикселей
    Соотношение сторон                       : 2,40:1
    Режим частоты кадров                     : Постоянный
    Частота кадров                           : 23,976 (24000/1001) кадра/сек
    Цветовое пространство                    : YUV
    Субдискретизация насыщенности            : 4:2:0
    Битовая глубина                          : 8 бит
    Тип развёртки                            : Прогрессивная
    Бит/(Пиксели*Кадры)                      : 0.461
    Размер потока                            : 9,73 Гбайт (77%)
    Библиотека кодирования                   : x264 core 152 r2851kMod ba24899
    Настройки программы                      : cabac=1 / ref=12 / deblock=1:-2:-2 / analyse=0x3:0x113 / me=umh / subme=11 / psy=1 / fade_compensate=0.00 / psy_rd=1.05:0.10 / mixed_ref=1 / me_range=48 / chroma_me=1 / trellis=2 / 8x8dct=1 / cqm=0 / deadzone=21,11 / fast_pskip=0 / chroma_qp_offset=-3 / threads=12 / lookahead_threads=3 / sliced_threads=0 / nr=0 / decimate=0 / interlaced=0 / bluray_compat=0 / constrained_intra=0 / bframes=10 / b_pyramid=2 / b_adapt=2 / b_bias=0 / direct=3 / weightb=1 / open_gop=0 / weightp=2 / keyint=240 / keyint_min=23 / scenecut=40 / intra_refresh=0 / rc_lookahead=40 / rc=2pass / mbtree=0 / bitrate=7500 / ratetol=1.0 / qcomp=0.60 / qpmin=0 / qpmax=39 / qpstep=4 / cplxblur=20.0 / qblur=0.5 / vbv_maxrate=50000 / vbv_bufsize=62500 / nal_hrd=none / filler=0 / ip_ratio=1.25 / pb_ratio=1.30 / aq=1:1.00
    Язык                                     : English
    Default                                  : Да
    Forced                                   : Нет
    Цветовой диапазон                        : Limited
    Основные цвета                           : BT.709
    Характеристики трансфера                 : BT.709
    Коэффициенты матрицы                     : BT.709

    Аудио #1
    Идентификатор                            : 2
    Формат                                   : AC-3
    Формат/Информация                        : Audio Coding 3
    Параметр Endianness формата              : Big
    Идентификатор кодека                     : A_AC3
    Продолжительность                        : 3 ч. 10 м.
    Вид битрейта                             : Постоянный
    Битрейт                                  : 192 Кбит/сек
    Каналы                                   : 2 канала
    Расположение каналов                     : Front: L R
    Частота                                  : 48,0 КГц
    Частота кадров                           : 31,250 кадров/сек (1536 SPF)
    Битовая глубина                          : 16 бит
    Метод сжатия                             : С потерями
    Размер потока                            : 262 Мбайт (2%)
    Заголовок                                : Дубляж
    Язык                                     : Russian
    Default                                  : Да
    Forced                                   : Нет

    Аудио #2
    Идентификатор                            : 3
    Формат                                   : AC-3
    Формат/Информация                        : Audio Coding 3
    Параметр Endianness формата              : Big
    Идентификатор кодека                     : A_AC3
    Продолжительность                        : 3 ч. 10 м.
    Вид битрейта                             : Постоянный
    Битрейт                                  : 192 Кбит/сек
    Каналы                                   : 2 канала
    Расположение каналов                     : Front: L R
    Частота                                  : 48,0 КГц
    Частота кадров                           : 31,250 кадров/сек (1536 SPF)
    Битовая глубина                          : 16 бит
    Метод сжатия                             : С потерями
    Размер потока                            : 262 Мбайт (2%)
    Заголовок                                : MVO
    Язык                                     : Russian
    Default                                  : Нет
    Forced                                   : Нет

    Аудио #3
    Идентификатор                            : 4
    Формат                                   : AC-3
    Формат/Информация                        : Audio Coding 3
    Параметр Endianness формата              : Big
    Идентификатор кодека                     : A_AC3
    Продолжительность                        : 3 ч. 10 м.
    Вид битрейта                             : Постоянный
    Битрейт                                  : 192 Кбит/сек
    Каналы                                   : 2 канала
    Расположение каналов                     : Front: L R
    Частота                                  : 48,0 КГц
    Частота кадров                           : 31,250 кадров/сек (1536 SPF)
    Битовая глубина                          : 16 бит
    Метод сжатия                             : С потерями
    Размер потока                            : 262 Мбайт (2%)
    Заголовок                                : Живов
    Язык                                     : Russian
    Default                                  : Нет
    Forced                                   : Нет

    Аудио #4
    Идентификатор                            : 5
    Формат                                   : AC-3
    Формат/Информация                        : Audio Coding 3
    Параметр Endianness формата              : Big
    Идентификатор кодека                     : A_AC3
    Продолжительность                        : 3 ч. 10 м.
    Вид битрейта                             : Постоянный
    Битрейт                                  : 640 Кбит/сек
    Каналы                                   : 6 каналов
    Расположение каналов                     : Front: L C R, Side: L R, LFE
    Частота                                  : 48,0 КГц
    Частота кадров                           : 31,250 кадров/сек (1536 SPF)
    Битовая глубина                          : 16 бит
    Метод сжатия                             : С потерями
    Размер потока                            : 872 Мбайт (7%)
    Заголовок                                : Гаврилов
    Язык                                     : Russian
    Default                                  : Нет
    Forced                                   : Нет

    Аудио #5
    Идентификатор                            : 6
    Формат                                   : AC-3
    Формат/Информация                        : Audio Coding 3
    Параметр Endianness формата              : Big
    Идентификатор кодека                     : A_AC3
    Продолжительность                        : 3 ч. 10 м.
    Вид битрейта                             : Постоянный
    Битрейт                                  : 192 Кбит/сек
    Каналы                                   : 2 канала
    Расположение каналов                     : Front: L R
    Частота                                  : 48,0 КГц
    Частота кадров                           : 31,250 кадров/сек (1536 SPF)
    Битовая глубина                          : 16 бит
    Метод сжатия                             : С потерями
    Размер потока                            : 262 Мбайт (2%)
    Заголовок                                : Володарский
    Язык                                     : Russian
    Default                                  : Нет
    Forced                                   : Нет

    Аудио #6
    Идентификатор                            : 7
    Формат                                   : AC-3
    Формат/Информация                        : Audio Coding 3
    Параметр Endianness формата              : Big
    Идентификатор кодека                     : A_AC3
    Продолжительность                        : 3 ч. 10 м.
    Вид битрейта                             : Постоянный
    Битрейт                                  : 640 Кбит/сек
    Каналы                                   : 6 каналов
    Расположение каналов                     : Front: L C R, Side: L R, LFE
    Частота                                  : 48,0 КГц
    Частота кадров                           : 31,250 кадров/сек (1536 SPF)
    Битовая глубина                          : 16 бит
    Метод сжатия                             : С потерями
    Размер потока                            : 872 Мбайт (7%)
    Заголовок                                : Eng
    Язык                                     : English
    Default                                  : Нет
    Forced                                   : Нет

    Текст
    Идентификатор                            : 8
    Формат                                   : UTF-8
    Идентификатор кодека                     : S_TEXT/UTF8
    Идентификатор кодека/Информация          : UTF-8 Plain Text
    Заголовок                                : eng full
    Язык                                     : English
    Default                                  : Нет
    Forced                                   : Нет

    Меню
    00:00:00.000                             : :Chapter 01
    00:02:23.934                             : :Chapter 02
    00:06:46.823                             : :Chapter 03
    00:09:52.799                             : :Chapter 04
    00:11:48.249                             : :Chapter 05
    00:15:11.118                             : :Chapter 06
    00:16:58.809                             : :Chapter 07
    00:19:47.185                             : :Chapter 08
    00:23:16.770                             : :Chapter 09
    00:26:42.225                             : :Chapter 10
    00:28:55.650                             : :Chapter 11
    00:36:54.085                             : :Chapter 12
    00:42:23.373                             : :Chapter 13
    00:44:14.568                             : :Chapter 14
    00:47:51.076                             : :Chapter 15
    00:49:15.410                             : :Chapter 16
    00:53:17.152                             : :Chapter 17
    01:00:56.778                             : :Chapter 18
    01:03:01.402                             : :Chapter 19
    01:05:22.126                             : :Chapter 20
    01:07:53.486                             : :Chapter 21
    01:09:36.964                             : :Chapter 22
    01:14:12.488                             : :Chapter 23
    01:16:35.549                             : :Chapter 24
    01:18:51.309                             : :Chapter 25
    01:21:04.317                             : :Chapter 26
    01:24:45.121                             : :Chapter 27
    01:27:23.780                             : :Chapter 28
    01:29:14.098                             : :Chapter 29
    01:31:11.716                             : :Chapter 30
    01:33:43.826                             : :Chapter 31
    01:35:14.582                             : :Chapter 32
    01:38:10.718                             : :Chapter 33
    01:39:21.747                             : :Chapter 34
    01:44:03.195                             : :Chapter 35
    01:47:36.241                             : :Chapter 36
    01:50:12.939                             : :Chapter 37
    01:53:14.912                             : :Chapter 38
    01:54:18.268                             : :Chapter 39
    01:57:12.942                             : :Chapter 40
    02:00:49.033                             : :Chapter 41
    02:02:31.802                             : :Chapter 42
    02:07:00.654                             : :Chapter 43
    02:09:52.200                             : :Chapter 44
    02:12:53.215                             : :Chapter 45
    02:17:10.430                             : :Chapter 46
    02:18:53.867                             : :Chapter 47
    02:21:24.808                             : :Chapter 48
    02:24:48.513                             : :Chapter 49
    02:27:47.650                             : :Chapter 50
    02:30:10.751                             : :Chapter 51
    02:31:41.008                             : :Chapter 52
    02:36:05.897                             : :Chapter 53
    02:39:09.373                             : :Chapter 54
    02:42:35.954                             : :Chapter 55
    02:48:15.251                             : :Chapter 56
    02:49:29.534                             : :Chapter 57
    02:52:10.194                             : :Chapter 58
    02:54:30.959                             : :Chapter 59
    02:56:47.388                             : :Chapter 60
    02:59:51.447                             : :Chapter 61
    03:04:27.306                             : :Chapter 62
    03:06:23.129                             : :Chapter 63
    03:10:35.215                             : :Chapter 64

    Свернуть


    Скриншоты
    [screen]https://img11.lostpic.net/2018/07/08/7d66e42d553627baa657ed92414bcdf7.png[/screen][screen]https://img11.lostpic.net/2018/07/08/509c70e5cca94df88c309db1bc9ad4b0.png[/screen][screen]https://img11.lostpic.net/2018/07/08/3a57c57f0dcf1e63bda478c9c2fe19f3.png[/screen][screen]https://img11.lostpic.net/2018/07/08/d484fe6793729acdd023ff1a502f1360.png[/screen][screen]https://img11.lostpic.net/2018/07/08/900b4e1e2be71ab37ee80ca3af047593.png[/screen][screen]https://img11.lostpic.net/2018/07/08/90b714b0102ca1cee5fb30243aa8186c.png[/screen]   Свернуть


    [img]http://s018.radikal.ru/i516/1710/ce/3eb1e0641821.gif[/img] [img]http://korsar.tv/images/VKontakte.gif[/img]
    Похожие раздачи Искать похожие
    Инструкция по скачиванию
     1  Качаем uTorrent версии 2.0 и выше
     2  После установки, жмем выше под постером на ссылку Скачать [MediaGet] или Скачать .torrent
     3  Открываем скачанный файл через соответствующий клиент: MediaGet или uTorrent
     4  Ждем пока подключатся участники
     5  Качаем
    Комментарии о  Уайатт Эрп / Wyatt Earp | BDRip 720p 
    Ближайшее в кино
    Вверх