• Игры для PS4
  • Игры для PS3
  • Игры для XBOX360
  • Игры для PC
  • Игры для PS2
  • Игры для PSP
  • Для телефонов
  • Музыка
  • Книги / Журналы
  • Обои
  • Опрос
    Удобен ли сайт в использовании?
      0
    • Очень удобен, все понятно1,1,false,300,full
    • Удобен1,2,false,300,full
    • Средне1,3,false,300,full
    • Неудобен, трудно ориентироваться1,4,false,300,full
    • Совсем неудобен1,5,false,300,full
    Статистика
    Всего онлайн -
    Гостей -
    Пользователей -
    Короли трекера
    
    Благодарности () Закрыть
    Быстрее загружает сайты Экономит интернет—трафик Меняет оформление страницы ВК Блокирует всю рекламу на сайтах Загружает торренты как µTorrent клиент Объеденяет все твои чаты из соц. сетей в один Проигрывает твою музыку не заходя во ВКонтакте
    Новый интернет-браузер
    Orbitum
    Скачать
    и многое другое... Подробности на сайте производителя
    Эскобар / Loving Pablo
    «Всё ещё любишь его?»

    Год выпуска: 2017
    Страна: Испания, Болгария, США
    Производство: Escobar Films, B2Y EOOD
    Жанр:  Биография, драма, криминал

    Режиссёр: Фернандо Леон Де Араноа
    В ролях: Хавьер Бардем, Пенелопа Крус, Питер Сарсгаард, Жульет Рестрепо, Оскар Хаенада, Фреди Йэт, Рикардо Ниньо, Педро Кальво, Джованни Альварез, Дэвид Валенсиа

    Перевод: Дублированный | iTunes
    Субтитры: Нет
    Реклама: Отсутствует

    Описание: История восхождения Пабло Эскобара - его стремительного пути к миллиардам, могуществу и непростительным преступлениям. Во всесильного наркобарона влюбляется журналистка, чьи мемуары положены в основу фильма.



    Качество: WEB-DLRip-AVC
    Продолжительность: 01:45:54

    Формат: MKV
    Видео кодек: MPEG-4 AVC
    Аудио кодек: AC3
    Видео: 1024x428 (16:9), 23,976 fps, x264 ~1 588 kbps avg, 0.151 bit/pixel
    Аудио #1: 48 kHz, AC3 Dolby Digital, 3/2 (L,C,R,l,r) + LFE ch, ~384.00 kbps avg | RUS (iTunes)

    Дата премьеры (РФ): 14 июня 2018, «Каскад фильм»
    Дата премьеры (мир): 6 сентября 2017

    MediaInfo

    Общее
    Уникальный идентификатор                 : 190791238847867213016759251424793128016 (0x8F890E562C19CFB589E043DBFA60EC50)
    Полное имя                               : F:OlLanDGroupLoving.Pablo.2017.WEB-DLRip(AVC).OlLanDGroup.mkv
    Формат                                   : Matroska
    Версия формата                           : Version 4 / Version 2
    Размер файла                             : 1,46 Гбайт
    Продолжительность                        : 1 ч. 45 м.
    Общий поток                              : 1974 Кбит/сек
    Название фильма                          : Loving.Pablo.2017   #TorpedoUK#
    Дата кодирования                         : UTC 2018-07-09 08:43:40
    Программа кодирования                    : mkvmerge v8.3.0 ("Over the Horizon") 64bit
    Библиотека кодирования                   : libebml v1.3.1 + libmatroska v1.4.2

    Видео
    Идентификатор                            : 1
    Формат                                   : AVC
    Формат/Информация                        : Advanced Video Codec
    Профиль формата                          : High@L4.1
    Параметр CABAC формата                   : Да
    Параметр ReFrames формата                : 10 кадров
    Идентификатор кодека                     : V_MPEG4/ISO/AVC
    Продолжительность                        : 1 ч. 45 м.
    Битрейт                                  : 1588 Кбит/сек
    Ширина                                   : 1024 пикселя
    Высота                                   : 428 пикселей
    Соотношение сторон                       : 2,40:1
    Режим частоты кадров                     : Постоянный
    Частота кадров                           : 23,976 (24000/1001) кадра/сек
    Цветовое пространство                    : YUV
    Субдискретизация насыщенности            : 4:2:0
    Битовая глубина                          : 8 бит
    Тип развёртки                            : Прогрессивная
    Бит/(Пиксели*Кадры)                      : 0.151
    Размер потока                            : 1,18 Гбайт (80%)
    Библиотека кодирования                   : x264 core 146 r2538 121396c
    Настройки программы                      : cabac=1 / ref=10 / deblock=1:-3:-3 / analyse=0x3:0x113 / me=umh / subme=11 / psy=1 / psy_rd=0.97:0.05 / mixed_ref=1 / me_range=48 / chroma_me=1 / trellis=2 / 8x8dct=1 / cqm=0 / deadzone=21,11 / fast_pskip=1 / chroma_qp_offset=-3 / threads=6 / lookahead_threads=1 / sliced_threads=0 / nr=0 / decimate=1 / interlaced=0 / bluray_compat=0 / constrained_intra=0 / bframes=10 / b_pyramid=2 / b_adapt=2 / b_bias=0 / direct=3 / weightb=1 / open_gop=0 / weightp=2 / keyint=240 / keyint_min=23 / scenecut=40 / intra_refresh=0 / rc_lookahead=40 / rc=2pass / mbtree=1 / bitrate=1588 / ratetol=1.0 / qcomp=0.60 / qpmin=0 / qpmax=69 / qpstep=4 / cplxblur=20.0 / qblur=0.5 / vbv_maxrate=50000 / vbv_bufsize=62500 / nal_hrd=none / filler=0 / ip_ratio=1.40 / aq=1:1.00
    Default                                  : Да
    Forced                                   : Нет

    Аудио
    Идентификатор                            : 2
    Формат                                   : AC-3
    Формат/Информация                        : Audio Coding 3
    Расширение режима                        : CM (complete main)
    Параметр Endianness формата              : Big
    Идентификатор кодека                     : A_AC3
    Продолжительность                        : 1 ч. 45 м.
    Вид битрейта                             : Постоянный
    Битрейт                                  : 384 Кбит/сек
    Каналы                                   : 6 каналов
    Расположение каналов                     : Front: L C R, Side: L R, LFE
    Частота                                  : 48,0 КГц
    Частота кадров                           : 31,250 кадров/сек (1536 spf)
    Битовая глубина                          : 16 бит
    Метод сжатия                             : С потерями
    Размер потока                            : 291 Мбайт (19%)
    Заголовок                                : iTunes
    Язык                                     : Russian
    Default                                  : Да
    Forced                                   : Нет

    Меню
    00:00:00.000                             : en:1
    00:02:47.000                             : en:2
    00:13:05.000                             : en:3
    00:23:39.000                             : en:4
    00:34:37.000                             : en:5
    00:45:46.000                             : en:6
    00:55:39.000                             : en:7
    01:04:46.000                             : en:8
    01:13:29.000                             : en:9
    01:22:51.000                             : en:10
    01:32:34.000                             : en:11
    01:39:48.000                             : en:12
    Свернуть


    Похожие раздачи Искать похожие
    Инструкция по скачиванию
     1  Качаем uTorrent версии 2.0 и выше
     2  После установки, жмем выше под постером на ссылку Скачать [MediaGet] или Скачать .torrent
     3  Открываем скачанный файл через соответствующий клиент: MediaGet или uTorrent
     4  Ждем пока подключатся участники
     5  Качаем
    Комментарии о  Эскобар / Loving Pablo | WEB-DLRip-AVC 
    Ближайшее в кино
    Вверх