• Игры для PS4
  • Игры для PS3
  • Игры для XBOX360
  • Игры для PC
  • Игры для PS2
  • Игры для PSP
  • Для телефонов
  • Музыка
  • Книги / Журналы
  • Обои
  • Опрос
    Откуда Вы о нас узнали?
      0
    • От знакомых2,1,false,300,full
    • Из социальных сетей2,2,false,300,full
    • Из поисковых систем2,3,false,300,full
    • Другое2,4,false,300,full
    Статистика
    Всего онлайн -
    Гостей -
    Пользователей -
    Короли трекера
    
    Благодарности () Закрыть
    Быстрее загружает сайты Экономит интернет—трафик Меняет оформление страницы ВК Блокирует всю рекламу на сайтах Загружает торренты как µTorrent клиент Объеденяет все твои чаты из соц. сетей в один Проигрывает твою музыку не заходя во ВКонтакте
    Новый интернет-браузер
    Orbitum
    Скачать
    и многое другое... Подробности на сайте производителя
    Информация о фильме
    Название: В тылу врага
    Оригинальное название: Behind Enemy Lines
    Год выхода: 2001
    Жанр:  боевик, триллер, драма, военный
    Режиссер: Джон Мур
    В ролях: Оуэн Уилсон, Владимир Машков, Джин Хэкмен, Гэбриел Махт, Чарльз Малик Уитфилд, Дэвид Кит, Олек Крупа, Жоаким ди Алмейда, Марко Игонда, Эял Поделл

    О фильме:
    Молодой лейтенант ВВС США Крис Бернетт, один из лучших военно-морских летчиков, по жизни мечтает о том, чтобы ему выпал шанс поучаствовать в настоящих боевых действиях вместо того, чтобы наблюдать за тренировками своих коллег. Однако его командир, адмирал Рейгарт считает, что Крис еще не готов… Да и боевых действий-то особо как-то не предвидится.

    Но вот, во время одной из разведывательных миссий, Бернетт фотографирует то, что не было предназначено для чужих глаз и его самолет сбивают. Летчик оказывается в тылу врага, который хочет уничтожить шпиона. Время идет, и адмирал Рейгарт, рискуя своей карьерой, решает нарушить все правила и организовать спасательную операцию, чтобы вернуть своего ученика…



    Выпущено: Twentieth Century Fox Film Corporation, Davis Entertainment
    Страна: США
    Продолжительность: 1:45:58
    Перевод: Дублированный + Профессиональный (многоголосый закадровый) + Авторский (одноголосый закадровый)
    Субтитры: Русские, английские

    Файл
    Качество: WEB-DL 1080p | Open Matte | Amazon | BLUEBIRD
    Видео: MPEG-4 AVC, 11500 Кбит/с, 1920x1080,  23.976 кадр/с
    Аудио#1: Russian: 48 kHz, DTS, 3/2 (L,C,R,l,r) + LFE ch, ~768 |Дублированный|
    Аудио#2: Russian: 48 kHz, DTS, 3/2 (L,C,R,l,r) + LFE ch, ~1509 |Многоголосый закадровый, Карусель|
    Аудио#3: Russian: 48 kHz, DTS, 3/2 (L,C,R,l,r) + LFE ch, ~1509 |Одноголосый закадровый, Ю. Живов|
    Аудио#4: English: 48 kHz, DTS, 3/2 (L,C,R,l,r) + LFE ch, ~1509 kbps avg
    Аудио#5: English: 48 kHz, AC3, 2/0 (L,R) ch, ~224.00 kbps avg |Комментарии, Джона Мура и Пола Мартина Смита|
    Аудио#6: English: 48 kHz, AC3, 2/0 (L,R) ch, ~224.00 kbps avg |Комментарии, Джона Дэвиса и Вика Годфри|

    Blu-ray vs WEB DL Amazon

    Примечания
    Исходник видео WEB-DL Amazon STARZ (Периодически появляется логотип)
    Open Matte версия фильма, имеет большее наполнение кадра, по сравнению с блюрэй.Свернуть


    M/I
    General
    Unique ID                   : 14556594783992583847428540981398836815 (0xAF37F889C9D316D8C307EFF5235964F)
    Complete name               : F:DeleteВ тылу врага (2001) WEB-DL 1080p [Open Matte] -BLUEBIRD.mkv
    Format                      : Matroska
    Format version              : Version 4 / Version 2
    File size                   : 12.7 GiB
    Duration                    : 1 h 46 min
    Overall bit rate mode       : Variable
    Overall bit rate            : 17.2 Mb/s
    Encoded date                : UTC 2018-07-06 20:14:35
    Writing application         : mkvmerge v24.0.0 ("Beyond The Pale") 64-bit
    Writing library             : libebml v1.3.6 + libmatroska v1.4.9

    Video
    ID                          : 1
    Format                      : AVC
    Format/Info                 : Advanced Video Codec
    Format profile              : High@L4
    Format settings             : CABAC / 4 Ref Frames
    Format settings, CABAC      : Yes
    Format settings, ReFrames   : 4 frames
    Codec ID                    : V_MPEG4/ISO/AVC
    Duration                    : 1 h 46 min
    Bit rate mode               : Variable
    Bit rate                    : 11.1 Mb/s
    Maximum bit rate            : 15.0 Mb/s
    Width                       : 1 920 pixels
    Height                      : 1 080 pixels
    Display aspect ratio        : 16:9
    Frame rate mode             : Constant
    Frame rate                  : 23.976 (24000/1001) FPS
    Color space                 : YUV
    Chroma subsampling          : 4:2:0
    Bit depth                   : 8 bits
    Scan type                   : Progressive
    Bits/(Pixel*Frame)          : 0.224
    Stream size                 : 8.25 GiB (65%)
    Default                     : Yes
    Forced                      : No
    Color range                 : Limited
    Color primaries             : BT.709
    Transfer characteristics    : BT.709
    Matrix coefficients         : BT.709

    Audio #1
    ID                          : 2
    Format                      : DTS
    Format/Info                 : Digital Theater Systems
    Codec ID                    : A_DTS
    Duration                    : 1 h 46 min
    Bit rate mode               : Constant
    Bit rate                    : 755 kb/s
    Channel(s)                  : 6 channels
    Channel positions           : Front: L C R, Side: L R, LFE
    Sampling rate               : 48.0 kHz
    Frame rate                  : 93.750 FPS (512 SPF)
    Bit depth                   : 24 bits
    Compression mode            : Lossy
    Stream size                 : 572 MiB (4%)
    Title                       : Дубляж
    Language                    : Russian
    Default                     : Yes
    Forced                      : No

    Audio #2
    ID                          : 3
    Format                      : DTS
    Format/Info                 : Digital Theater Systems
    Codec ID                    : A_DTS
    Duration                    : 1 h 46 min
    Bit rate mode               : Constant
    Bit rate                    : 1 510 kb/s
    Channel(s)                  : 6 channels
    Channel positions           : Front: L C R, Side: L R, LFE
    Sampling rate               : 48.0 kHz
    Frame rate                  : 93.750 FPS (512 SPF)
    Bit depth                   : 24 bits
    Compression mode            : Lossy
    Stream size                 : 1.12 GiB (9%)
    Title                       : Карусель
    Language                    : Russian
    Default                     : No
    Forced                      : No

    Audio #3
    ID                          : 4
    Format                      : DTS
    Format/Info                 : Digital Theater Systems
    Codec ID                    : A_DTS
    Duration                    : 1 h 46 min
    Bit rate mode               : Constant
    Bit rate                    : 1 510 kb/s
    Channel(s)                  : 6 channels
    Channel positions           : Front: L C R, Side: L R, LFE
    Sampling rate               : 48.0 kHz
    Frame rate                  : 93.750 FPS (512 SPF)
    Bit depth                   : 24 bits
    Compression mode            : Lossy
    Stream size                 : 1.12 GiB (9%)
    Title                       : Ю.Живов
    Language                    : Russian
    Default                     : No
    Forced                      : No

    Audio #4
    ID                          : 5
    Format                      : DTS
    Format/Info                 : Digital Theater Systems
    Codec ID                    : A_DTS
    Duration                    : 1 h 46 min
    Bit rate mode               : Constant
    Bit rate                    : 1 510 kb/s
    Channel(s)                  : 6 channels
    Channel positions           : Front: L C R, Side: L R, LFE
    Sampling rate               : 48.0 kHz
    Frame rate                  : 93.750 FPS (512 SPF)
    Bit depth                   : 24 bits
    Compression mode            : Lossy
    Stream size                 : 1.12 GiB (9%)
    Language                    : English
    Default                     : No
    Forced                      : No

    Audio #5
    ID                          : 6
    Format                      : AC-3
    Format/Info                 : Audio Coding 3
    Codec ID                    : A_AC3
    Duration                    : 1 h 46 min
    Bit rate mode               : Constant
    Bit rate                    : 224 kb/s
    Channel(s)                  : 2 channels
    Channel positions           : Front: L R
    Sampling rate               : 48.0 kHz
    Frame rate                  : 31.250 FPS (1536 SPF)
    Bit depth                   : 16 bits
    Compression mode            : Lossy
    Stream size                 : 170 MiB (1%)
    Title                       : Комментарии, Джона Мура и Пола Мартина Смита
    Language                    : English
    Service kind                : Complete Main
    Default                     : No
    Forced                      : No

    Audio #6
    ID                          : 7
    Format                      : AC-3
    Format/Info                 : Audio Coding 3
    Codec ID                    : A_AC3
    Duration                    : 1 h 46 min
    Bit rate mode               : Constant
    Bit rate                    : 224 kb/s
    Channel(s)                  : 2 channels
    Channel positions           : Front: L R
    Sampling rate               : 48.0 kHz
    Frame rate                  : 31.250 FPS (1536 SPF)
    Bit depth                   : 16 bits
    Compression mode            : Lossy
    Stream size                 : 170 MiB (1%)
    Title                       : Комментарии, Джона Дэвиса и Вика Годфри
    Language                    : English
    Service kind                : Complete Main
    Default                     : No
    Forced                      : No

    Text #1
    ID                          : 8
    Format                      : UTF-8
    Codec ID                    : S_TEXT/UTF8
    Codec ID/Info               : UTF-8 Plain Text
    Language                    : Russian
    Default                     : No
    Forced                      : No

    Text #2
    ID                          : 9
    Format                      : UTF-8
    Codec ID                    : S_TEXT/UTF8
    Codec ID/Info               : UTF-8 Plain Text
    Language                    : English
    Default                     : No
    Forced                      : No

    Text #3
    ID                          : 10
    Format                      : UTF-8
    Codec ID                    : S_TEXT/UTF8
    Codec ID/Info               : UTF-8 Plain Text
    Title                       : SDH Amazon
    Language                    : English
    Default                     : No
    Forced                      : NoСвернуть


    Скриншоты
    [screen]http://i1.imageban.ru/out/2018/07/09/130f6fb7cfcfee1e178f5791973c9f71.png[/screen][screen]http://i4.imageban.ru/out/2018/07/09/9b708dd44b4c669ba7dd15787bb1574e.png[/screen][screen]http://i2.imageban.ru/out/2018/07/09/fa955c3926b27329114ddbb8e6058f70.png[/screen][screen]http://i1.imageban.ru/out/2018/07/09/a00af52d38a2adc371a80abce8d20bec.png[/screen][screen]http://i6.imageban.ru/out/2018/07/09/05eb982a08d81bd3cc62630e86c66cc9.png[/screen][screen]http://i3.imageban.ru/out/2018/07/09/5fe4cf73eceb87a205ba5fed2470a7f1.png[/screen]Свернуть
    Похожие раздачи Искать похожие
    Инструкция по скачиванию
     1  Качаем uTorrent версии 2.0 и выше
     2  После установки, жмем выше под постером на ссылку Скачать [MediaGet] или Скачать .torrent
     3  Открываем скачанный файл через соответствующий клиент: MediaGet или uTorrent
     4  Ждем пока подключатся участники
     5  Качаем
    Комментарии о  В тылу врага / Behind Enemy Lines | WEB-DL 1080p 
    Ближайшее в кино
    Вверх