• Игры для PS4
  • Игры для PS3
  • Игры для XBOX360
  • Игры для PC
  • Игры для PS2
  • Игры для PSP
  • Для телефонов
  • Музыка
  • Книги / Журналы
  • Обои
  • Опрос
    Откуда Вы о нас узнали?
      0
    • От знакомых2,1,false,300,full
    • Из социальных сетей2,2,false,300,full
    • Из поисковых систем2,3,false,300,full
    • Другое2,4,false,300,full
    Статистика
    Всего онлайн -
    Гостей -
    Пользователей -
    Короли трекера
    
    Благодарности () Закрыть
    Быстрее загружает сайты Экономит интернет—трафик Меняет оформление страницы ВК Блокирует всю рекламу на сайтах Загружает торренты как µTorrent клиент Объеденяет все твои чаты из соц. сетей в один Проигрывает твою музыку не заходя во ВКонтакте
    Новый интернет-браузер
    Orbitum
    Скачать
    и многое другое... Подробности на сайте производителя
    Информация о фильме
    Название: Мир будущего
    Оригинальное название: Future World
    Год выхода: 2018
    Жанр: Фантастика
    Режиссер: Джеймс Франко, Брюс Тьерри Чун
    В ролях: Джеймс Франко, Сьюки Уотерхаус, Джеффри Уолберг, Маргарита Левиева, Снуп Догг, Твин Шадоу, Метод Мэн, Люси Лью, Милла Йовович, Кармен Ардженциано
    Описание: Молодой человек, живущий в постапокалиптическом мире, вынужден отправиться в рискованное путешествие в мрачный и опасный мир Пустоши, чтобы отыскать лекарство для больной матери.
    Страна: США
    Студия: AMBI Group, Black Sparrow Films, Dark Rabbit Productions
    Продолжительность: 01:28:03
    Перевод: Любительский многоголосый [HDrezka Studio]
    Файл
    Кодек: MPEG-2
    Качество: DVD-9 (Исходник US Blu-ray 1080р)
    Видео: MPEG2, NTSC 16:9 (720x480@853x480) VBR, 23,976 кадра/сек, 5465 Кбит/сек
    Звук: Русский DD 2.0 (192 Kbps), Английский  DD 5.1 (448 Kbps)

    [img]http://imdb.snick.ru/ratefor/02/tt5737536.png[/img][img]https://rating.kinopoisk.ru/978776.gif[/img]



    DVDInfo


    Title:
    Size: 4.37 Gb ( 4 577 720 KBytes ) - DVD-5
    Enabled regions: 1, 2, 3, 4, 5, 6, 7, 8

    VTS_01 :
    Play Length: 01:28:03+00:12:39+00:02:09
    Video: NTSC 16:9 (720x480) VBR, Auto Pan&Scan
    Audio:
    Russian (Dolby AC3, 2 ch)
    English (Dolby AC3, 6 ch)

    Menu Video:
    NTSC 4:3 (720x480) VBR
    Menu English Language Unit :
    Root Menu

    Свернуть


    MediaInfo

    Общее
    Полное имя                               : G:ААА2МИР БУДУЩЕГОVIDEO_TSVTS_01_1.VOB
    Формат                                   : MPEG-PS
    Размер файла                             : 1024 Мбайт
    Продолжительность                        : 22 м.
    Режим общего битрейта                    : Переменный
    Общий поток                              : 6229 Кбит/сек

    Видео
    Идентификатор                            : 224 (0xE0)
    Формат                                   : MPEG Video
    Версия формата                           : Version 2
    Профиль формата                          : Main@Main
    Параметр BVOP формата                    : Да
    Параметр матрицы формата                 : По умолчанию
    Параметр GOP формата                     : M=3, N=12
    Продолжительность                        : 22 м.
    Вид битрейта                             : Переменный
    Битрейт                                  : 5465 Кбит/сек
    Максимальный битрейт                     : 8776 Кбит/сек
    Ширина                                   : 720 пикселей
    Высота                                   : 480 пикселей
    Соотношение сторон                       : 16:9
    Частота кадров                           : 23,976 кадра/сек
    Стандарт вещания                         : NTSC
    Цветовое пространство                    : YUV
    Субдискретизация насыщенности            : 4:2:0
    Битовая глубина                          : 8 бит
    Тип развёртки                            : Прогрессивная
    Порядок развёртки                        : 2:3 Pulldown
    Метод сжатия                             : С потерями
    Бит/(Пиксели*Кадры)                      : 0.660
    TimeCode_FirstFrame                      : 00:00:00;00
    TimeCode_Source                          : Group of pictures header
    Размер потока                            : 898 Мбайт (88%)

    Аудио #1
    Идентификатор                            : 189 (0xBD)-128 (0x80)
    Формат                                   : AC-3
    Формат/Информация                        : Audio Coding 3
    Расширение режима                        : CM (complete main)
    Параметр Endianness формата              : Big
    Режим смешивания                         : DVD-Video
    Продолжительность                        : 22 м.
    Вид битрейта                             : Постоянный
    Битрейт                                  : 192 Кбит/сек
    Каналы                                   : 2 канала
    Расположение каналов                     : Front: L R
    Частота                                  : 48,0 КГц
    Битовая глубина                          : 16 бит
    Метод сжатия                             : С потерями
    Размер потока                            : 31,6 Мбайт (3%)

    Аудио #2
    Идентификатор                            : 189 (0xBD)-129 (0x81)
    Формат                                   : AC-3
    Формат/Информация                        : Audio Coding 3
    Расширение режима                        : CM (complete main)
    Параметр Endianness формата              : Big
    Режим смешивания                         : DVD-Video
    Продолжительность                        : 22 м.
    Вид битрейта                             : Постоянный
    Битрейт                                  : 448 Кбит/сек
    Каналы                                   : 6 каналов
    Расположение каналов                     : Front: L C R, Side: L R, LFE
    Частота                                  : 48,0 КГц
    Битовая глубина                          : 16 бит
    Метод сжатия                             : С потерями
    Размер потока                            : 73,6 Мбайт (7%)

    Меню

    Свернуть


    Похожие раздачи Искать похожие
    Инструкция по скачиванию
     1  Качаем uTorrent версии 2.0 и выше
     2  После установки, жмем выше под постером на ссылку Скачать [MediaGet] или Скачать .torrent
     3  Открываем скачанный файл через соответствующий клиент: MediaGet или uTorrent
     4  Ждем пока подключатся участники
     5  Качаем
    Комментарии о  Мир будущего / Future World | DVD5 
    Ближайшее в кино
    Вверх