• Игры для PS4
  • Игры для PS3
  • Игры для XBOX360
  • Игры для PC
  • Игры для PS2
  • Игры для PSP
  • Для телефонов
  • Музыка
  • Книги / Журналы
  • Обои
  • Опрос
    Удобен ли сайт в использовании?
      0
    • Очень удобен, все понятно1,1,false,300,full
    • Удобен1,2,false,300,full
    • Средне1,3,false,300,full
    • Неудобен, трудно ориентироваться1,4,false,300,full
    • Совсем неудобен1,5,false,300,full
    Статистика
    Всего онлайн -
    Гостей -
    Пользователей -
    Короли трекера
    
    Благодарности () Закрыть
    Быстрее загружает сайты Экономит интернет—трафик Меняет оформление страницы ВК Блокирует всю рекламу на сайтах Загружает торренты как µTorrent клиент Объеденяет все твои чаты из соц. сетей в один Проигрывает твою музыку не заходя во ВКонтакте
    Новый интернет-браузер
    Orbitum
    Скачать
    и многое другое... Подробности на сайте производителя
    Название: Плебеи
    Оригинальное название: Plebs
    Год выхода: 2014
    Жанр: Комедия
    Режиссер: Сэм Лейфер
    В ролях: Том Розенталь, Джоэль Фрай, Райан Сэмпсон, Софи Колкухоун, Лидия Роуз Бьюли, Карл Теобалд, Том Басден, Дун Макичен, Эдриан Скарборо, Джевон Прин

    О сериале:
    Место действия — пригород Древнего Рима, в котором обитают два закадычных друга Маркус и Стилакс и их ленивый раб Грумио, постоянно страдающий от проблем в отношениях. Маркус и Стилакс всеми силами пытаются подняться вверх по социальной лестнице, при этом не забывая как следует веселиться, не смотря на козни беспощадного босса.

    Страна: Великобритания
    Студия: Rise Films
    Продолжительность: 00:25:00
    Перевод: Любительский двухголосый  | NEON Studio
    Субтитры: Нет



    Файл
    Формат: MKV
    Качество: HDTVRip (720p)

    Видео: MPEG-4 AVC, ~ 4000 Кбит/с, 1280x720
    Звук: 48 kHz, AC3 Dolby Digital, 2/0 (L,R) ch, ~192 kbps

    [img]http://s020.radikal.ru/i705/1608/01/225cff83b1c3.jpg[/img][img]http://s017.radikal.ru/i441/1604/56/714e856e18ba.gif[/img]
    [img]http://i104.fastpic.ru/big/2018/0620/19/17a7beaed52bce26cbaf9f876ac3f719.png[/img]

    MediaInfo
    Общее
    Уникальный идентификатор                 : 161442611069054480664514075666729135969 (0x7974B744F264B0FFBA6DEB09346FEF61)
    Полное имя                               : Plebs.s02e01.720p.HDTVRip.NEONStudio.mkv
    Формат                                   : Matroska
    Версия формата                           : Version 4 / Version 2
    Размер файла                             : 696 Мбайт
    Продолжительность                        : 24 м. 3 с.
    Общий поток                              : 4046 Кбит/сек
    Дата кодирования                         : UTC 2018-06-22 18:25:07
    Программа кодирования                    : mkvmerge v24.0.0 ("Beyond The Pale") 64-bit
    Библиотека кодирования                   : libebml v1.3.6 + libmatroska v1.4.9

    Видео
    Идентификатор                            : 1
    Формат                                   : AVC
    Формат/Информация                        : Advanced Video Codec
    Профиль формата                          : Baseline@L3.1
    Настройки формата                        : 2 Ref Frames
    Параметр CABAC формата                   : Нет
    Параметр RefFrames формата               : 2 кадра
    Идентификатор кодека                     : V_MPEG4/ISO/AVC
    Продолжительность                        : 24 м. 3 с.
    Битрейт                                  : 4000 Кбит/сек
    Ширина                                   : 1280 пикселей
    Высота                                   : 720 пикселей
    Соотношение сторон                       : 16:9
    Режим частоты кадров                     : Постоянный
    Частота кадров                           : 25,000 кадров/сек
    Цветовое пространство                    : YUV
    Субдискретизация насыщенности            : 4:2:0
    Битовая глубина                          : 8 бит
    Тип развёртки                            : Прогрессивная
    Бит/(Пиксели*Кадры)                      : 0.174
    Размер потока                            : 663 Мбайт (95%)
    Библиотека кодирования                   : x264 core 142
    Настройки программы                      : cabac=0 / ref=2 / deblock=1:0:0 / analyse=0x1:0x111 / me=hex / subme=4 / psy=1 / psy_rd=1.00:0.00 / mixed_ref=0 / me_range=16 / chroma_me=1 / trellis=1 / 8x8dct=0 / cqm=0 / deadzone=21,11 / fast_pskip=1 / chroma_qp_offset=0 / threads=3 / lookahead_threads=1 / sliced_threads=0 / nr=0 / decimate=1 / interlaced=0 / bluray_compat=0 / constrained_intra=0 / bframes=0 / weightp=0 / keyint=250 / keyint_min=25 / scenecut=40 / intra_refresh=0 / rc_lookahead=20 / rc=abr / mbtree=1 / bitrate=4000 / ratetol=1.0 / qcomp=0.60 / qpmin=0 / qpmax=69 / qpstep=4 / ip_ratio=1.40 / aq=1:1.00
    Язык                                     : English
    Default                                  : Да
    Forced                                   : Нет

    Аудио
    Идентификатор                            : 2
    Формат                                   : AC-3
    Формат/Информация                        : Audio Coding 3
    Идентификатор кодека                     : A_AC3
    Продолжительность                        : 24 м. 3 с.
    Вид битрейта                             : Постоянный
    Битрейт                                  : 192 Кбит/сек
    Каналы                                   : 2 канала
    Расположение каналов                     : Front: L R
    Частота                                  : 48,0 КГц
    Частота кадров                           : 31,250 кадров/сек (1536 SPF)
    Битовая глубина                          : 16 бит
    Метод сжатия                             : С потерями
    Задержка видео                           : -23 мс.
    Размер потока                            : 33,0 Мбайт (5%)
    Default                                  : Да
    Forced                                   : Нет
    Свернуть


    Скриншоты
    [screen]http://i104.fastpic.ru/big/2018/0623/27/54314bdecf10b2a1079d89ab3f27df27.jpg[/screen][screen]http://i104.fastpic.ru/big/2018/0623/1a/ba522278bb43724d717a63a03c74111a.jpg[/screen][screen]http://i104.fastpic.ru/big/2018/0623/89/4cef6a579bb7bc06f2c17bc2190c7089.jpg[/screen][screen]http://i104.fastpic.ru/big/2018/0623/3b/888ecec4556c3cfd9118f7bbabc5013b.jpg[/screen]Свернуть
    Похожие раздачи Искать похожие
    Инструкция по скачиванию
     1  Качаем uTorrent версии 2.0 и выше
     2  После установки, жмем выше под постером на ссылку Скачать [MediaGet] или Скачать .torrent
     3  Открываем скачанный файл через соответствующий клиент: MediaGet или uTorrent
     4  Ждем пока подключатся участники
     5  Качаем
    Комментарии о  Плебеи / Plebs [Сезон 02 | 01-05 серии из 08] | HDTVRip 720p 
    Ближайшее в кино
    Вверх