• Игры для PS4
  • Игры для PS3
  • Игры для XBOX360
  • Игры для PC
  • Игры для PS2
  • Игры для PSP
  • Для телефонов
  • Музыка
  • Книги / Журналы
  • Обои
  • Опрос
    Откуда Вы о нас узнали?
      0
    • От знакомых2,1,false,300,full
    • Из социальных сетей2,2,false,300,full
    • Из поисковых систем2,3,false,300,full
    • Другое2,4,false,300,full
    Статистика
    Всего онлайн -
    Гостей -
    Пользователей -
    Короли трекера
    
    Благодарности () Закрыть
    Быстрее загружает сайты Экономит интернет—трафик Меняет оформление страницы ВК Блокирует всю рекламу на сайтах Загружает торренты как µTorrent клиент Объеденяет все твои чаты из соц. сетей в один Проигрывает твою музыку не заходя во ВКонтакте
    Новый интернет-браузер
    Orbitum
    Скачать
    и многое другое... Подробности на сайте производителя
    Ева / Eva

    Страна: Франция [img]http://st.kp.yandex.net/images/flags/flag-8.gif[/img] Бельгия [img]http://st.kp.yandex.net/images/flags/flag-41.gif[/img]
    Производство: Arte France, Canal+ [fr], EuropaCorp, NJJ Entertainment, SCOPE Invest, Scope Pictures, TeleScope Film Distribution
    Год выпуска: 2018
    Жанр:  триллер
    Продолжительность: 01:37:44

    Режиссер: Бенуа Жако
    Авторы сценария: Джеймс Хэдли Чейз, Бенуа Жако, Жиль Торан

    В ролях: Изабель Юппер, Гаспар Ульель, Джулия Рой, Марк Барбе, Ришар Берри, Дидье Фламан, Эллен Мирес, Натали Шарад

    Описание: Многообещающий писатель Бертран во время сильной метели оказывается под одной крышей с обольстительной и загадочной Евой. Одержимый этой роковой женщиной, он не подозревает, кто она на самом деле, и в какую опасную игру он вовлечён. Но в погоне за славой, он готов пойти на всё, чтобы получить незабываемый и шокирующий финал для, возможно, главного своего романа, героиней которого является Ева...



    Перевод: Профессиональный (полное дублирование) | iTunes
    Субтитры: нет

    Качество: WEB-DLRip
    Формат: АVI
    Видео кодек: XviD
    Аудио кодек: АС3
    Видео: 720x304 (2.35:1), 25.000 fps, XviD build 67 ~1 625 kbps avg
    Аудио: 48 kHz, AC3 Dolby Digital, 3/2 (L,C,R,l,r) + LFE ch, ~384 kbps

    Дата премьеры (мир): 17 февраля 2018
    Дата премьеры (РФ): 8 марта 2018, «Экспонента»

    [img]http://s010.radikal.ru/i313/1609/5b/ca3b75e82c69.gif[/img]

    Media Info
    General
    Полное имя                               : Eva.2018.WEB-DLRip-ylnian.avi
    Формат                                   : AVI
    Формат/Информация                        : Audio Video Interleave
    Размер файла                             : 1,38 Гбайт
    Продолжительность                        : 1 ч. 37 м.
    Общий поток                              : 2019 Кбит/сек
    Программа кодирования                    : VirtualDubMod 1.5.10.3 | (build 2550/release)
    Библиотека кодирования                   : VirtualDubMod build 2550/release

    Видео
    Идентификатор                            : 0
    Формат                                   : MPEG-4 Visual
    Профиль формата                          : Advanced Simple@L5
    Настройки формата                        : BVOP1
    Параметр BVOP формата                    : 1
    Параметр QPel формата                    : Нет
    Параметр GMC формата                     : Без точки перехода
    Параметр матрицы формата                 : Default (MPEG)
    Идентификатор кодека                     : XVID
    Идентификатор кодека/Подсказка           : XviD
    Продолжительность                        : 1 ч. 37 м.
    Битрейт                                  : 1625 Кбит/сек
    Ширина                                   : 720 пикселей
    Высота                                   : 304 пикселя
    Соотношение сторон                       : 2,35:1
    Частота кадров                           : 25,000 кадров/сек
    Цветовое пространство                    : YUV
    Субдискретизация насыщенности            : 4:2:0
    Битовая глубина                          : 8 бит
    Тип развёртки                            : Прогрессивная
    Метод сжатия                             : С потерями
    Бит/(Пиксели*Кадры)                      : 0.297
    Размер потока                            : 1,11 Гбайт (80%)
    Библиотека кодирования                   : XviD 67

    Аудио
    Идентификатор                            : 1
    Формат                                   : AC-3
    Формат/Информация                        : Audio Coding 3
    Идентификатор кодека                     : 2000
    Продолжительность                        : 1 ч. 37 м.
    Вид битрейта                             : Постоянный
    Битрейт                                  : 384 Кбит/сек
    Каналы                                   : 6 каналов
    Расположение каналов                     : Front: L C R, Side: L R, LFE
    Частота                                  : 48,0 КГц
    Частота кадров                           : 31,250 кадров/сек (1536 SPF)
    Битовая глубина                          : 16 бит
    Метод сжатия                             : С потерями
    Размер потока                            : 268 Мбайт (19%)
    Выравнивание                             : Разделение по промежуткам
    Продолжительность промежутка             : 40  мс. (1,00 видеокадр)
    Время предзагрузки промежутка            : 500  мс.
    Заголовок                                : DUB - iTunesСвернуть


    Скриншоты
    [screen]https://img11.lostpic.net/2018/07/09/9909495f5c61e2afaef3ec0a4be3e4a3.png[/screen][screen]https://img11.lostpic.net/2018/07/09/e229c7a38c60e6db4a553694bd4bcc74.png[/screen][screen]https://img11.lostpic.net/2018/07/09/9379fe155830a235b864a501e7b6c494.png[/screen]Свернуть
    Похожие раздачи Искать похожие
    Инструкция по скачиванию
     1  Качаем uTorrent версии 2.0 и выше
     2  После установки, жмем выше под постером на ссылку Скачать [MediaGet] или Скачать .torrent
     3  Открываем скачанный файл через соответствующий клиент: MediaGet или uTorrent
     4  Ждем пока подключатся участники
     5  Качаем
    Комментарии о  Ева / Eva | WEB-DLRip 
    Ближайшее в кино
    Вверх