• Игры для PS4
  • Игры для PS3
  • Игры для XBOX360
  • Игры для PC
  • Игры для PS2
  • Игры для PSP
  • Для телефонов
  • Музыка
  • Книги / Журналы
  • Обои
  • Опрос
    Удобен ли сайт в использовании?
      0
    • Очень удобен, все понятно1,1,false,300,full
    • Удобен1,2,false,300,full
    • Средне1,3,false,300,full
    • Неудобен, трудно ориентироваться1,4,false,300,full
    • Совсем неудобен1,5,false,300,full
    Статистика
    Всего онлайн -
    Гостей -
    Пользователей -
    Короли трекера
    
    Благодарности () Закрыть
    Быстрее загружает сайты Экономит интернет—трафик Меняет оформление страницы ВК Блокирует всю рекламу на сайтах Загружает торренты как µTorrent клиент Объеденяет все твои чаты из соц. сетей в один Проигрывает твою музыку не заходя во ВКонтакте
    Новый интернет-браузер
    Orbitum
    Скачать
    и многое другое... Подробности на сайте производителя
    Информация о фильме
    Название: Из дома на Уиллоу-Стрит
    Оригинальное название: From a House on Willow Street
    Год выхода: 2016
    Жанр: Ужасы, боевик
    Режиссер: Аластер Орр
    В ролях: Карлин Берчелл, Густав Герденер, Зино Вентура, Шарни Винсон, Стивен Джон Уорд
    Описание: Отец Кэтрин работает в алмазодобывающей компании, и четверо злоумышленников решают похитить его дочь, чтобы получить выкуп. Они проникают в дом, хватают Кэтрин и увозят её на заброшенный завод. Но вскоре они напрочь забудут об алмазах и пожалеют о своем замысле — похищенная заставит их иначе расставить жизненные приоритеты.
    Страна: ЮАР
    Студия: Darkside, the, Fat Cigar Productions
    Продолжительность: 01:26:19
    Перевод: Любительский одноголосый (Важенин Андрей (BadBajo))

    Файл
    Кодек: MPEG-2
    Качество: DVD-9 (Немецкий Blu-ray 1080p )
    Видео: MPEG2, NTSC 16:9 (720x480@853x480) VBR, 23,976 кадра/сек
    Звук: Русский DD 5.1 (384 Kbps), Английский / Немецкий DD 5.1 (448 Kbps)





    DVDInfo


    Title:
    Size: 4.37 Gb ( 4 577 584 KBytes ) - DVD-5
    Enabled regions: 1, 2, 3, 4, 5, 6, 7, 8

    VTS_01 :
    Play Length: 01:26:19+00:06:20+00:02:01+00:02:00
    Video: NTSC 16:9 (720x480) VBR, Auto Pan&Scan
    Audio:
    Russian (Dolby AC3, 6 ch)
    English (Dolby AC3, 6 ch)
    Deutsch (Dolby AC3, 6 ch)

    Menu Video:
    NTSC 4:3 (720x480) VBR
    Menu English Language Unit :
    Root Menu

    Свернуть


    MediaInfo

    Общее
    Полное имя                               : G:ААА2Из дома на Уиллоу-стритVIDEO_TSVTS_01_1.VOB
    Формат                                   : MPEG-PS
    Размер файла                             : 1024 Мбайт
    Продолжительность                        : 22 м.
    Режим общего битрейта                    : Переменный
    Общий поток                              : 6318 Кбит/сек

    Видео
    Идентификатор                            : 224 (0xE0)
    Формат                                   : MPEG Video
    Версия формата                           : Version 2
    Профиль формата                          : Main@Main
    Параметр BVOP формата                    : Да
    Параметр матрицы формата                 : По умолчанию
    Параметр GOP формата                     : M=3, N=12
    Продолжительность                        : 22 м.
    Вид битрейта                             : Переменный
    Битрейт                                  : 4912 Кбит/сек
    Максимальный битрейт                     : 8320 Кбит/сек
    Ширина                                   : 720 пикселей
    Высота                                   : 480 пикселей
    Соотношение сторон                       : 16:9
    Частота кадров                           : 23,976 кадра/сек
    Стандарт вещания                         : NTSC
    Цветовое пространство                    : YUV
    Субдискретизация насыщенности            : 4:2:0
    Битовая глубина                          : 8 бит
    Тип развёртки                            : Прогрессивная
    Порядок развёртки                        : 2:3 Pulldown
    Метод сжатия                             : С потерями
    Бит/(Пиксели*Кадры)                      : 0.593
    TimeCode_FirstFrame                      : 00:00:00;00
    TimeCode_Source                          : Group of pictures header
    Размер потока                            : 796 Мбайт (78%)

    Аудио #1
    Идентификатор                            : 189 (0xBD)-128 (0x80)
    Формат                                   : AC-3
    Формат/Информация                        : Audio Coding 3
    Расширение режима                        : CM (complete main)
    Параметр Endianness формата              : Big
    Режим смешивания                         : DVD-Video
    Продолжительность                        : 22 м.
    Вид битрейта                             : Постоянный
    Битрейт                                  : 384 Кбит/сек
    Каналы                                   : 6 каналов
    Расположение каналов                     : Front: L C R, Side: L R, LFE
    Частота                                  : 48,0 КГц
    Битовая глубина                          : 16 бит
    Метод сжатия                             : С потерями
    Размер потока                            : 62,2 Мбайт (6%)

    Аудио #2
    Идентификатор                            : 189 (0xBD)-129 (0x81)
    Формат                                   : AC-3
    Формат/Информация                        : Audio Coding 3
    Расширение режима                        : CM (complete main)
    Параметр Endianness формата              : Big
    Режим смешивания                         : DVD-Video
    Продолжительность                        : 22 м.
    Вид битрейта                             : Постоянный
    Битрейт                                  : 448 Кбит/сек
    Каналы                                   : 6 каналов
    Расположение каналов                     : Front: L C R, Side: L R, LFE
    Частота                                  : 48,0 КГц
    Битовая глубина                          : 16 бит
    Метод сжатия                             : С потерями
    Размер потока                            : 72,6 Мбайт (7%)

    Аудио #3
    Идентификатор                            : 189 (0xBD)-130 (0x82)
    Формат                                   : AC-3
    Формат/Информация                        : Audio Coding 3
    Расширение режима                        : CM (complete main)
    Параметр Endianness формата              : Big
    Режим смешивания                         : DVD-Video
    Продолжительность                        : 22 м.
    Вид битрейта                             : Постоянный
    Битрейт                                  : 448 Кбит/сек
    Каналы                                   : 6 каналов
    Расположение каналов                     : Front: L C R, Side: L R, LFE
    Частота                                  : 48,0 КГц
    Битовая глубина                          : 16 бит
    Метод сжатия                             : С потерями
    Размер потока                            : 72,6 Мбайт (7%)

    Меню

    Свернуть


    Инструкция по скачиванию
     1  Качаем uTorrent версии 2.0 и выше
     2  После установки, жмем выше под постером на ссылку Скачать [MediaGet] или Скачать .torrent
     3  Открываем скачанный файл через соответствующий клиент: MediaGet или uTorrent
     4  Ждем пока подключатся участники
     5  Качаем
    Комментарии о  Из дома на Уиллоу-Стрит / From a House on Willow Street | DVD5 
    Ближайшее в кино
    Вверх