• Игры для PS4
  • Игры для PS3
  • Игры для XBOX360
  • Игры для PC
  • Игры для PS2
  • Игры для PSP
  • Для телефонов
  • Музыка
  • Книги / Журналы
  • Обои
  • Опрос
    Откуда Вы о нас узнали?
      0
    • От знакомых2,1,false,300,full
    • Из социальных сетей2,2,false,300,full
    • Из поисковых систем2,3,false,300,full
    • Другое2,4,false,300,full
    Статистика
    Всего онлайн -
    Гостей -
    Пользователей -
    Короли трекера
    
    Благодарности () Закрыть
    Быстрее загружает сайты Экономит интернет—трафик Меняет оформление страницы ВК Блокирует всю рекламу на сайтах Загружает торренты как µTorrent клиент Объеденяет все твои чаты из соц. сетей в один Проигрывает твою музыку не заходя во ВКонтакте
    Новый интернет-браузер
    Orbitum
    Скачать
    и многое другое... Подробности на сайте производителя
    Название: Суперзвезда / Сердце Лета / Возвысь свой голос
    Оригинальное название: Raise Your Voice
    Год выпуска: 2004
    Выпущено: США, Brookwell-McNamara Entertainment, ChickFlick Productions, FilmEngine, New Line Cinema
    Жанр:  Мелодрама, комедия, музыка, семейный
    Режиссер: Шон МакНамара
    В ролях: Хилари Дафф, Оливер Джеймс, Дэвид Кит, Дэна Дэвис, Джонни Льюис, Рита Уилсон, Лоурен С. Мэйхью, Кэт Деннингс, Давида Уильямс

    О фильме: Юная провинциалка Терри Флетчер обожает петь в церковном хоре, но ее старший брат Пол уверяет, что следует совершенствовать голос и не останавливаться на достигнутом. После трагической гибели Пола вопреки возражениям отца девушка отправляется в Лос-Анджелес. Там, в течение лета, ей нужно пройти серьезный отборочный конкурс в престижную музыкальную школу, а для этого важно не затеряться среди талантливых конкурентов.

    Продолжительность: 01:46:45
    Перевод: Профессиональный многоголосый, авторский
    Субтитры: Русские, английские
    Навигация по главам: Есть

    Файл
    Качество: WEB-DL 1080p
    Видео: MPEG-4 AVC, 13,0 Мбит/сек, 1920x816, 23,976 кадра/сек
    Аудио #1: AC3, 6 ch, 448 Кбит/сек | Русский, профессиональный (многоголосый закадровый) DVD9, PAL
    Аудио #2: AC3, 6 ch, 384 Кбит/сек | Русский, профессиональный (многоголосый закадровый) DVD5, NTSC
    Аудио #3: AC3, 2 ch, 192 Кбит/сек | Русский, авторский (одноголосый закадровый) Евгений Рудой
    Аудио #4: AC3, 6 ch, 448 Кбит/сек | Английский, оригинал, DVD9
    Аудио #5: EAC3, 2 ch, 224 Кбит/сек | Английский, оригинал, WEB



    Скриншоты
    [screen]https://img11.lostpic.net/2018/07/08/fbd365c0b7e14d1d58c64763a084585d.png[/screen][screen]https://img11.lostpic.net/2018/07/08/5f89d3dde483bb7319206365dc39344c.png[/screen][screen]https://img11.lostpic.net/2018/07/08/1fa10a97f9c98acda29170a690e2c235.png[/screen][screen]https://img11.lostpic.net/2018/07/08/4a55eff179eff4ee65dfa1bb80869e88.png[/screen][screen]https://img11.lostpic.net/2018/07/08/1e931849af06ca6bafe1266f4439e84d.png[/screen][screen]https://img11.lostpic.net/2018/07/08/f8f0e6291b208940c022fdd7539aa0d4.png[/screen][screen]https://img11.lostpic.net/2018/07/08/7a1fb8237de28e56c42e4c3e26b7d156.png[/screen][screen]https://img11.lostpic.net/2018/07/08/73798eb05426eae9bc2f40bd4c45d15b.png[/screen]Свернуть


    Инфо-файл
    Общее
    Уникальный идентификатор                 : 227455774585206628116354542725033155636 (0xAB1E6383CAE29A5AB698C8220F1CDC34)
    Полное имя                               : Суперзвезда.2004.WEB-DL.1080p.mkv
    Формат                                   : Matroska
    Версия формата                           : Version 2
    Размер файла                             : 11,2 Гбайт
    Продолжительность                        : 1 ч. 46 м.
    Режим общего битрейта                    : Переменный
    Общий поток                              : 15,0 Мбит/сек
    Дата кодирования                         : UTC 2018-07-07 23:43:25
    Программа кодирования                    : mkvmerge v5.8.0 ("No Sleep / Pillow") built on Sep  2 2012 15:37:04
    Библиотека кодирования                   : libebml v1.2.3 + libmatroska v1.3.0

    Видео
    Идентификатор                            : 1
    Формат                                   : AVC
    Формат/Информация                        : Advanced Video Codec
    Профиль формата                          : High@L4
    Настройки формата                        : CABAC / 4 Ref Frames
    Параметр CABAC формата                   : Да
    Параметр RefFrames формата               : 4 кадра
    Идентификатор кодека                     : V_MPEG4/ISO/AVC
    Продолжительность                        : 1 ч. 46 м.
    Вид битрейта                             : Переменный
    Битрейт                                  : 13,0 Мбит/сек
    Максимальный битрейт                     : 15,0 Мбит/сек
    Ширина                                   : 1920 пикселей
    Высота                                   : 816 пикселей
    Соотношение сторон                       : 2,35:1
    Режим частоты кадров                     : Постоянный
    Частота кадров                           : 23,976 (24000/1001) кадра/сек
    Цветовое пространство                    : YUV
    Субдискретизация насыщенности            : 4:2:0
    Битовая глубина                          : 8 бит
    Тип развёртки                            : Прогрессивная
    Бит/(Пиксели*Кадры)                      : 0.346
    Размер потока                            : 9,69 Гбайт (87%)
    Библиотека кодирования                   : x264 core 148 r2623 d5b2374
    Настройки программы                      : cabac=1 / ref=4 / deblock=1:-1:-1 / analyse=0x3:0x133 / me=umh / subme=9 / psy=1 / psy_rd=1.00:0.15 / mixed_ref=1 / me_range=24 / chroma_me=1 / trellis=2 / 8x8dct=1 / cqm=0 / deadzone=21,11 / fast_pskip=1 / chroma_qp_offset=-3 / threads=25 / lookahead_threads=4 / sliced_threads=0 / nr=150 / decimate=1 / interlaced=0 / bluray_compat=0 / constrained_intra=0 / bframes=8 / b_pyramid=2 / b_adapt=2 / b_bias=0 / direct=3 / weightb=1 / open_gop=0 / weightp=2 / keyint=120 / keyint_min=61 / scenecut=0 / intra_refresh=0 / rc_lookahead=120 / rc=crf / mbtree=1 / crf=18.0 / qcomp=0.60 / qpmin=0 / qpmax=69 / qpstep=4 / vbv_maxrate=15000 / vbv_bufsize=31250 / crf_max=0.0 / nal_hrd=vbr / filler=0 / ip_ratio=1.40 / aq=3:1.00
    Язык                                     : English
    Default                                  : Да
    Forced                                   : Нет
    Цветовой диапазон                        : Limited
    Основные цвета                           : BT.709
    Характеристики трансфера                 : BT.709
    Коэффициенты матрицы                     : BT.709

    Аудио #1
    Идентификатор                            : 2
    Формат                                   : AC-3
    Формат/Информация                        : Audio Coding 3
    Идентификатор кодека                     : A_AC3
    Продолжительность                        : 1 ч. 46 м.
    Вид битрейта                             : Постоянный
    Битрейт                                  : 448 Кбит/сек
    Каналы                                   : 6 каналов
    Расположение каналов                     : Front: L C R, Side: L R, LFE
    Частота                                  : 48,0 КГц
    Частота кадров                           : 31,250 кадров/сек (1536 SPF)
    Битовая глубина                          : 16 бит
    Метод сжатия                             : С потерями
    Размер потока                            : 342 Мбайт (3%)
    Заголовок                                : MVO 1
    Язык                                     : Russian
    По умолчанию                             : Да
    Принудительно                            : Нет

    Аудио #2
    Идентификатор                            : 3
    Формат                                   : AC-3
    Формат/Информация                        : Audio Coding 3
    Идентификатор кодека                     : A_AC3
    Продолжительность                        : 1 ч. 46 м.
    Вид битрейта                             : Постоянный
    Битрейт                                  : 384 Кбит/сек
    Каналы                                   : 6 каналов
    Расположение каналов                     : Front: L C R, Side: L R, LFE
    Частота                                  : 48,0 КГц
    Частота кадров                           : 31,250 кадров/сек (1536 SPF)
    Битовая глубина                          : 16 бит
    Метод сжатия                             : С потерями
    Размер потока                            : 293 Мбайт (3%)
    Заголовок                                : MVO 2
    Язык                                     : Russian
    По умолчанию                             : Нет
    Принудительно                            : Нет

    Аудио #3
    Идентификатор                            : 4
    Формат                                   : AC-3
    Формат/Информация                        : Audio Coding 3
    Идентификатор кодека                     : A_AC3
    Продолжительность                        : 1 ч. 46 м.
    Вид битрейта                             : Постоянный
    Битрейт                                  : 192 Кбит/сек
    Каналы                                   : 2 канала
    Расположение каналов                     : Front: L R
    Частота                                  : 48,0 КГц
    Частота кадров                           : 31,250 кадров/сек (1536 SPF)
    Битовая глубина                          : 16 бит
    Метод сжатия                             : С потерями
    Размер потока                            : 147 Мбайт (1%)
    Заголовок                                : AVO | Е. Рудой
    Язык                                     : Russian
    По умолчанию                             : Нет
    Принудительно                            : Нет

    Аудио #4
    Идентификатор                            : 5
    Формат                                   : AC-3
    Формат/Информация                        : Audio Coding 3
    Идентификатор кодека                     : A_AC3
    Продолжительность                        : 1 ч. 46 м.
    Вид битрейта                             : Постоянный
    Битрейт                                  : 448 Кбит/сек
    Каналы                                   : 6 каналов
    Расположение каналов                     : Front: L C R, Side: L R, LFE
    Частота                                  : 48,0 КГц
    Частота кадров                           : 31,250 кадров/сек (1536 SPF)
    Битовая глубина                          : 16 бит
    Метод сжатия                             : С потерями
    Размер потока                            : 342 Мбайт (3%)
    Заголовок                                : Original | 5.1
    Язык                                     : English
    По умолчанию                             : Нет
    Принудительно                            : Нет

    Аудио #5
    Идентификатор                            : 6
    Формат                                   : E-AC-3
    Формат/Информация                        : Enhanced Audio Coding 3
    Идентификатор кодека                     : A_EAC3
    Продолжительность                        : 1 ч. 46 м.
    Вид битрейта                             : Постоянный
    Битрейт                                  : 224 Кбит/сек
    Каналы                                   : 2 канала
    Расположение каналов                     : Front: L R
    Частота                                  : 48,0 КГц
    Частота кадров                           : 187,500 кадров/сек (256 SPF)
    Метод сжатия                             : С потерями
    Размер потока                            : 171 Мбайт (1%)
    Заголовок                                : Original | 2.0
    Язык                                     : English
    По умолчанию                             : Нет
    Принудительно                            : Нет

    Текст #1
    Идентификатор                            : 7
    Формат                                   : UTF-8
    Идентификатор кодека                     : S_TEXT/UTF8
    Идентификатор кодека/Информация          : UTF-8 Plain Text
    Язык                                     : Russian
    По умолчанию                             : Нет
    Принудительно                            : Нет

    Текст #2
    Идентификатор                            : 8
    Формат                                   : UTF-8
    Идентификатор кодека                     : S_TEXT/UTF8
    Идентификатор кодека/Информация          : UTF-8 Plain Text
    Язык                                     : English
    По умолчанию                             : Нет
    Принудительно                            : Нет

    Текст #3
    Идентификатор                            : 9
    Формат                                   : UTF-8
    Идентификатор кодека                     : S_TEXT/UTF8
    Идентификатор кодека/Информация          : UTF-8 Plain Text
    Заголовок                                : SDH
    Язык                                     : English
    По умолчанию                             : Нет
    Принудительно                            : Нет

    Меню
    00:00:00.000                             : en:Studio Logos
    00:00:25.000                             : en:Opening Credits, Terri Attends Choir Practice
    00:02:26.000                             : en:Students Celebrate the Last Day of School
    00:04:38.000                             : en:Fletcher Family Has a Graduation Party for Paul
    00:07:47.000                             : en:Paul Films Terri
    00:09:57.000                             : en:Terri Gives Paul His Graduation Gift
    00:10:46.000                             : en:Terri and Paul Head to a Concert
    00:12:16.000                             : en:Terri and Paul Enjoy the Concert
    00:14:27.000                             : en:Terri Awakens
    00:16:16.000                             : en:Terri and Family Cope with Their Loss
    00:17:02.000                             : en:Terri Gets Some News
    00:19:55.000                             : en:Francis Is Still Trying to Cope
    00:22:06.000                             : en:Terri Heads Out
    00:23:31.000                             : en:Terri Arrives in Los Angeles
    00:26:47.000                             : en:Terri Meets Denise and Checks In
    00:29:57.000                             : en:Students Meet Their Teachers
    00:32:50.000                             : en:Mr. Torvald Holds Class
    00:35:24.000                             : en:Terri Gets Used to the School
    00:37:56.000                             : en:Students Attend Classes
    00:39:25.000                             : en:Terri Attends Her Lesson
    00:41:14.000                             : en:Kiwi Tries to Impress Sloane
    00:41:57.000                             : en:Terri Thinks about Paul
    00:44:56.000                             : en:Terri Gets a Phone Call
    00:46:18.000                             : en:Mr. Torvald Tries to Help Terri
    00:50:00.000                             : en:Terri Talks to Jay about Paul
    00:52:17.000                             : en:Terri Starts to Turn Around
    00:54:38.000                             : en:Terri Interrupts Jay
    00:56:44.000                             : en:Kiwi Talks to Jay and Terri about Sloane
    00:59:25.000                             : en:Denise and Terri Talk about Jay
    01:00:12.000                             : en:Francis Comes Home to a Surprise
    01:02:41.000                             : en:Jay and the Group Head Out
    01:05:41.000                             : en:Terri Shows Jay Her Thinking Spot
    01:07:53.000                             : en:Jay and Terri Practice
    01:08:32.000                             : en:Jay Tries to Convince Terri to Perform
    01:11:18.000                             : en:Terri Misses Class and Robin Is Annoyed
    01:13:02.000                             : en:Terri Tries to Apologize While Jay and Robin Talk
    01:15:57.000                             : en:Terri Reflects on the Situation
    01:18:57.000                             : en:Terri and Denise Get a Rude Awakening
    01:22:06.000                             : en:Simon Makes a Discovery While Terri and Jay Practice
    01:25:03.000                             : en:Sloane Tries to Practice
    01:27:08.000                             : en:Terri Makes a Realization
    01:31:37.000                             : en:Jay and Terri Perform
    01:39:18.000                             : en:Simon Apologizes to Terri
    01:41:33.000                             : en:End CreditsСвернуть


    Дополнительная информация
    • Исходник видео WEB-DL Amazon.Свернуть


    Сборка: [img]http://i1.imageban.ru/out/2018/02/13/db08a675822da337df05f97bda2ce544.gif[/img] [img]http://i2.imageban.ru/out/2018/06/09/3e40bafdab66c4a60d118eadd265cbc1.gif[/img]
    Похожие раздачи Искать похожие
    Инструкция по скачиванию
     1  Качаем uTorrent версии 2.0 и выше
     2  После установки, жмем выше под постером на ссылку Скачать [MediaGet] или Скачать .torrent
     3  Открываем скачанный файл через соответствующий клиент: MediaGet или uTorrent
     4  Ждем пока подключатся участники
     5  Качаем
    Комментарии о  Суперзвезда / Raise Your Voice | WEB-DL 1080p 
    Ближайшее в кино
    Вверх