• Игры для PS4
  • Игры для PS3
  • Игры для XBOX360
  • Игры для PC
  • Игры для PS2
  • Игры для PSP
  • Для телефонов
  • Музыка
  • Книги / Журналы
  • Обои
  • Опрос
    Удобен ли сайт в использовании?
      0
    • Очень удобен, все понятно1,1,false,300,full
    • Удобен1,2,false,300,full
    • Средне1,3,false,300,full
    • Неудобен, трудно ориентироваться1,4,false,300,full
    • Совсем неудобен1,5,false,300,full
    Статистика
    Всего онлайн -
    Гостей -
    Пользователей -
    Короли трекера
    
    Благодарности () Закрыть
    Быстрее загружает сайты Экономит интернет—трафик Меняет оформление страницы ВК Блокирует всю рекламу на сайтах Загружает торренты как µTorrent клиент Объеденяет все твои чаты из соц. сетей в один Проигрывает твою музыку не заходя во ВКонтакте
    Новый интернет-браузер
    Orbitum
    Скачать
    и многое другое... Подробности на сайте производителя
    Страна: СССР
    Производство: Одесская киностудия

    Жанр:  драма
    Год выпуска: 1959
    Продолжительность: 01:30:38

    Перевод: Не требуется
    Cубтитры: нет
    Оригинальная аудиодорожка: русский

    Режиссер: Михаил Винярский

    В ролях:
    Андрей Попов, Борис Чирков, Татьяна Пилецкая, Лев Золотухин, Роза Балашова, Павел Кашлаков, Иван Кузнецов, Владимир Данченко, Владимир Балашов, И. Мыльный, Дмитрий Иванов, Владимир Савельев, Валентина Франчук...

    Описание:
    На строительстве гидроузла праздник – закончено сооружение земляной плотины. На площади веселится молодёжь, кружатся юные пары. И даже сумрачное, хмурое небо, предвещающее грозу, не портит никому праздничного настроения. Лишь опытные гидростроители чувствуют опасность. Быстро поднимаются воды Днепра, начинается паводок. Прибывающая вода, просачиваясь сквозь перемычку, вот-вот снесёт эту ненадёжную преграду и затопит весь фронт работ.

    [img]http://new-team.org/images/sample_video.png[/img]

    Исходник: DVB
    Качество видео: SATRip
    Формат видео: AVI

    Видео: 704х528 (4:3), 25 fps, XviD ~ 1516 kbps avg, 0.163 bit/pixel
    Аудио: 48 kHz, Dolby Digital AC3 2.0, 192 kbps

    MediaInfo

    Общее
    Полное имя                               : Mechty.sbyvayutsya.1959.SATRip_[New-team]_by_AVP_Studio.avi
    Формат                                   : AVI
    Формат/Информация                        : Audio Video Interleave
    Размер файла                             : 1,09 Гбайт
    Продолжительность                        : 1 ч. 30 м.
    Общий поток                              : 1718 Кбит/сек
    Программа кодирования                    : VirtualDubMod 1.5.10.3 | www.virtualdub-fr.org || (build 2550/release)
    Библиотека кодирования                   : VirtualDubMod build 2550/release

    Видео
    Идентификатор                            : 0
    Формат                                   : MPEG-4 Visual
    Профиль формата                          : Advanced Simple@L5
    Настройки формата                        : BVOP1 / Custom Matrix
    Параметр BVOP формата                    : 1
    Параметр QPel формата                    : Нет
    Параметр GMC формата                     : Без точки перехода
    Параметр матрицы формата                 : Выборочная
    Идентификатор кодека                     : XVID
    Идентификатор кодека/Подсказка           : XviD
    Продолжительность                        : 1 ч. 30 м.
    Битрейт                                  : 1516 Кбит/сек
    Ширина                                   : 704 пикселя
    Высота                                   : 528 пикселей
    Соотношение сторон                       : 4:3
    Частота кадров                           : 25,000 кадров/сек
    Цветовое пространство                    : YUV
    Субдискретизация насыщенности            : 4:2:0
    Битовая глубина                          : 8 бит
    Тип развёртки                            : Прогрессивная
    Метод сжатия                             : С потерями
    Бит/(Пиксели*Кадры)                      : 0.163
    Размер потока                            : 983 Мбайт (88%)
    Библиотека кодирования                   : XviD 73

    Аудио
    Идентификатор                            : 1
    Формат                                   : AC-3
    Формат/Информация                        : Audio Coding 3
    Идентификатор кодека                     : 2000
    Продолжительность                        : 1 ч. 30 м.
    Вид битрейта                             : Постоянный
    Битрейт                                  : 192 Кбит/сек
    Каналы                                   : 2 канала
    Расположение каналов                     : Front: L R
    Частота                                  : 48,0 КГц
    Частота кадров                           : 31,250 кадров/сек (1536 SPF)
    Битовая глубина                          : 16 бит
    Метод сжатия                             : С потерями
    Размер потока                            : 124 Мбайт (11%)
    Выравнивание                             : Разделение по промежуткам
    Продолжительность промежутка             : 40  мс. (1,00 видеокадр)
    Время предзагрузки промежутка            : 500  мс
    Свернуть


    Скриншоты

    [screen]http://i100.fastpic.ru/big/2018/0117/f1/7d6b2b5ca0eb0e52536410ecf32836f1.png[/screen][screen]http://i100.fastpic.ru/big/2018/0117/5d/edb8477ad2f6d3ba39d9f9f1dd2d495d.png[/screen][screen]http://i100.fastpic.ru/big/2018/0117/ea/7465f7c641b419a437e0996591b7a3ea.png[/screen][screen]http://i103.fastpic.ru/big/2018/0117/78/92a682012cab918335da5c7e09f02678.png[/screen]
    Свернуть
    Похожие раздачи Искать похожие
    Инструкция по скачиванию
     1  Качаем uTorrent версии 2.0 и выше
     2  После установки, жмем выше под постером на ссылку Скачать [MediaGet] или Скачать .torrent
     3  Открываем скачанный файл через соответствующий клиент: MediaGet или uTorrent
     4  Ждем пока подключатся участники
     5  Качаем
    Комментарии о  Мечты сбываются | SATRip 
    Ближайшее в кино
    Вверх