• Игры для PS4
  • Игры для PS3
  • Игры для XBOX360
  • Игры для PC
  • Игры для PS2
  • Игры для PSP
  • Для телефонов
  • Музыка
  • Книги / Журналы
  • Обои
  • Опрос
    Откуда Вы о нас узнали?
      0
    • От знакомых2,1,false,300,full
    • Из социальных сетей2,2,false,300,full
    • Из поисковых систем2,3,false,300,full
    • Другое2,4,false,300,full
    Статистика
    Всего онлайн -
    Гостей -
    Пользователей -
    Короли трекера
    
    Благодарности () Закрыть
    Быстрее загружает сайты Экономит интернет—трафик Меняет оформление страницы ВК Блокирует всю рекламу на сайтах Загружает торренты как µTorrent клиент Объеденяет все твои чаты из соц. сетей в один Проигрывает твою музыку не заходя во ВКонтакте
    Новый интернет-браузер
    Orbitum
    Скачать
    и многое другое... Подробности на сайте производителя
    Название: Три сердца / Любовь втроем / Любовь на троих
    Оригинальное название: Three of Hearts
    Год выпуска: 1993
    Выпущено: США, New Line Cinema, Three Hearts Productions
    Жанр:  Комедия, мелодрама
    Режиссер: Юрек Богаевич, Митч Глейзер
    В ролях: Уильям Болдуин, Келли Линч, Шерилин Фенн, Джо Пантолиано, Гэйл Стриклэнд, Чек Веррелл, Моник Маннен

    О фильме: Лесбиянка Конни, брошенная своей любимой девушкой, нанимает профессионального жиголо из службы эскорта, чтобы тот соблазнил, а потом бросил ее любимую, надеясь ее таким образом вернуть. Чего она не ожидала, так это того, что профессиональный соблазнитель поведет себя непрофессионально и влюбится в свою "жертву" …Отличная мелодрама родом из 90-х. Такие уже не снимают...

    Продолжительность: 01:44:06
    Перевод: Авторский
    Субтитры: Английские
    Навигация по главам: Есть

    Файл
    Качество: WEB-DL 1080p
    Видео: MPEG-4 AVC, 11,2 Мбит/сек, 1920x1080, 23,976 кадра/сек
    Аудио #1: AC3, 2 ch, 192 Кбит/сек | Русский, авторский (одноголосый закадровый) Алексей Михалев
    Аудио #2: AC3, 2 ch, 192 Кбит/сек | Русский, авторский (одноголосый закадровый) Василий Горчаков
    Аудио #3: AC3, 2 ch, 192 Кбит/сек | Русский, авторский (одноголосый закадровый) Леонид Володарский
    Аудио #4: AC3, 2 ch, 448 Кбит/сек | Английский, оригинал, DVD
    Аудио #5: EAC3, 2 ch, 224 Кбит/сек | Английский, оригинал, WEB



    Скриншоты
    [screen]https://img11.lostpic.net/2018/07/08/bbd0a654c4f3e0a83c44979147b27a99.png[/screen][screen]https://img11.lostpic.net/2018/07/08/a3c1175e80930c39014c5a374a23639e.png[/screen][screen]https://img11.lostpic.net/2018/07/08/13bd0924bb60b73f92d18672e5a0a51a.png[/screen][screen]https://img11.lostpic.net/2018/07/08/dee9e1ff1aab5c1964250d15bbec9649.png[/screen][screen]https://img11.lostpic.net/2018/07/08/548db0b1caffb90cc2aedc569fa3f96a.png[/screen][screen]https://img11.lostpic.net/2018/07/08/403484162f57d390fff93065b9147715.png[/screen][screen]https://img11.lostpic.net/2018/07/08/add1036e4e21fe738f9f1e5802b1d742.png[/screen][screen]https://img11.lostpic.net/2018/07/08/57fabcee2f32f2dfca17f3a4f9683993.png[/screen]Свернуть


    Инфо-файл
    Общее
    Уникальный идентификатор                 : 183666570792779823995076885610761130911 (0x8A2CE514B5FDA2F79A9A85FDB6CD939F)
    Полное имя                               : Три.сердца.1993.WEB-DL.1080p.mkv
    Формат                                   : Matroska
    Версия формата                           : Version 2
    Размер файла                             : 9,25 Гбайт
    Продолжительность                        : 1 ч. 44 м.
    Режим общего битрейта                    : Переменный
    Общий поток                              : 12,7 Мбит/сек
    Дата кодирования                         : UTC 2018-07-08 14:40:23
    Программа кодирования                    : mkvmerge v5.8.0 ("No Sleep / Pillow") built on Sep  2 2012 15:37:04
    Библиотека кодирования                   : libebml v1.2.3 + libmatroska v1.3.0

    Видео
    Идентификатор                            : 1
    Формат                                   : AVC
    Формат/Информация                        : Advanced Video Codec
    Профиль формата                          : High@L4
    Настройки формата                        : CABAC / 4 Ref Frames
    Параметр CABAC формата                   : Да
    Параметр RefFrames формата               : 4 кадра
    Идентификатор кодека                     : V_MPEG4/ISO/AVC
    Продолжительность                        : 1 ч. 44 м.
    Вид битрейта                             : Переменный
    Битрейт                                  : 11,2 Мбит/сек
    Максимальный битрейт                     : 15,0 Мбит/сек
    Ширина                                   : 1920 пикселей
    Высота                                   : 1080 пикселей
    Соотношение сторон                       : 16:9
    Режим частоты кадров                     : Постоянный
    Частота кадров                           : 23,976 (24000/1001) кадра/сек
    Цветовое пространство                    : YUV
    Субдискретизация насыщенности            : 4:2:0
    Битовая глубина                          : 8 бит
    Тип развёртки                            : Прогрессивная
    Бит/(Пиксели*Кадры)                      : 0.226
    Размер потока                            : 8,15 Гбайт (88%)
    Библиотека кодирования                   : x264 core 148 r2623 d5b2374
    Настройки программы                      : cabac=1 / ref=4 / deblock=1:-1:-1 / analyse=0x3:0x133 / me=umh / subme=9 / psy=1 / psy_rd=1.00:0.15 / mixed_ref=1 / me_range=24 / chroma_me=1 / trellis=2 / 8x8dct=1 / cqm=0 / deadzone=21,11 / fast_pskip=1 / chroma_qp_offset=-3 / threads=34 / lookahead_threads=5 / sliced_threads=0 / nr=150 / decimate=1 / interlaced=0 / bluray_compat=0 / constrained_intra=0 / bframes=8 / b_pyramid=2 / b_adapt=2 / b_bias=0 / direct=3 / weightb=1 / open_gop=0 / weightp=2 / keyint=120 / keyint_min=61 / scenecut=0 / intra_refresh=0 / rc_lookahead=120 / rc=crf / mbtree=1 / crf=18.0 / qcomp=0.60 / qpmin=0 / qpmax=69 / qpstep=4 / vbv_maxrate=15000 / vbv_bufsize=31250 / crf_max=0.0 / nal_hrd=vbr / filler=0 / ip_ratio=1.40 / aq=3:1.00
    Язык                                     : English
    Default                                  : Да
    Forced                                   : Нет
    Цветовой диапазон                        : Limited
    Основные цвета                           : BT.709
    Характеристики трансфера                 : BT.709
    Коэффициенты матрицы                     : BT.709

    Аудио #1
    Идентификатор                            : 2
    Формат                                   : AC-3
    Формат/Информация                        : Audio Coding 3
    Идентификатор кодека                     : A_AC3
    Продолжительность                        : 1 ч. 44 м.
    Вид битрейта                             : Постоянный
    Битрейт                                  : 192 Кбит/сек
    Каналы                                   : 2 канала
    Расположение каналов                     : Front: L R
    Частота                                  : 48,0 КГц
    Частота кадров                           : 31,250 кадров/сек (1536 SPF)
    Битовая глубина                          : 16 бит
    Метод сжатия                             : С потерями
    Размер потока                            : 143 Мбайт (2%)
    Заголовок                                : AVO | А. Михалев
    Язык                                     : Russian
    По умолчанию                             : Да
    Принудительно                            : Нет

    Аудио #2
    Идентификатор                            : 3
    Формат                                   : AC-3
    Формат/Информация                        : Audio Coding 3
    Идентификатор кодека                     : A_AC3
    Продолжительность                        : 1 ч. 44 м.
    Вид битрейта                             : Постоянный
    Битрейт                                  : 192 Кбит/сек
    Каналы                                   : 2 канала
    Расположение каналов                     : Front: L R
    Частота                                  : 48,0 КГц
    Частота кадров                           : 31,250 кадров/сек (1536 SPF)
    Битовая глубина                          : 16 бит
    Метод сжатия                             : С потерями
    Размер потока                            : 143 Мбайт (2%)
    Заголовок                                : AVO | В. Горчаков
    Язык                                     : Russian
    По умолчанию                             : Нет
    Принудительно                            : Нет

    Аудио #3
    Идентификатор                            : 4
    Формат                                   : AC-3
    Формат/Информация                        : Audio Coding 3
    Идентификатор кодека                     : A_AC3
    Продолжительность                        : 1 ч. 44 м.
    Вид битрейта                             : Постоянный
    Битрейт                                  : 192 Кбит/сек
    Каналы                                   : 2 канала
    Расположение каналов                     : Front: L R
    Частота                                  : 48,0 КГц
    Частота кадров                           : 31,250 кадров/сек (1536 SPF)
    Битовая глубина                          : 16 бит
    Метод сжатия                             : С потерями
    Размер потока                            : 143 Мбайт (2%)
    Заголовок                                : AVO | Л. Володарский
    Язык                                     : Russian
    По умолчанию                             : Нет
    Принудительно                            : Нет

    Аудио #4
    Идентификатор                            : 5
    Формат                                   : AC-3
    Формат/Информация                        : Audio Coding 3
    Идентификатор кодека                     : A_AC3
    Продолжительность                        : 1 ч. 44 м.
    Вид битрейта                             : Постоянный
    Битрейт                                  : 448 Кбит/сек
    Каналы                                   : 6 каналов
    Расположение каналов                     : Front: L C R, Side: L R, LFE
    Частота                                  : 48,0 КГц
    Частота кадров                           : 31,250 кадров/сек (1536 SPF)
    Битовая глубина                          : 16 бит
    Метод сжатия                             : С потерями
    Размер потока                            : 334 Мбайт (4%)
    Заголовок                                : Original | 5.1
    Язык                                     : English
    По умолчанию                             : Нет
    Принудительно                            : Нет

    Аудио #5
    Идентификатор                            : 6
    Формат                                   : E-AC-3
    Формат/Информация                        : Enhanced Audio Coding 3
    Идентификатор кодека                     : A_EAC3
    Продолжительность                        : 1 ч. 44 м.
    Вид битрейта                             : Постоянный
    Битрейт                                  : 224 Кбит/сек
    Каналы                                   : 2 канала
    Расположение каналов                     : Front: L R
    Частота                                  : 48,0 КГц
    Частота кадров                           : 187,500 кадров/сек (256 SPF)
    Метод сжатия                             : С потерями
    Размер потока                            : 167 Мбайт (2%)
    Заголовок                                : Original | 2.0
    Язык                                     : English
    По умолчанию                             : Нет
    Принудительно                            : Нет

    Текст #1
    Идентификатор                            : 7
    Формат                                   : UTF-8
    Идентификатор кодека                     : S_TEXT/UTF8
    Идентификатор кодека/Информация          : UTF-8 Plain Text
    Язык                                     : English
    По умолчанию                             : Нет
    Принудительно                            : Нет

    Текст #2
    Идентификатор                            : 8
    Формат                                   : UTF-8
    Идентификатор кодека                     : S_TEXT/UTF8
    Идентификатор кодека/Информация          : UTF-8 Plain Text
    Заголовок                                : SDH
    Язык                                     : English
    По умолчанию                             : Нет
    Принудительно                            : Нет

    Меню
    00:00:00.000                             : en:Main Title/Lovers Break Up
    00:04:58.943                             : en:Get The Money First
    00:09:37.388                             : en:Stumbling With Relationships
    00:13:47.638                             : en:Perfect Wedding Date
    00:24:28.278                             : en:The Cards Are Stacked
    00:29:37.454                             : en:Tragic Love Story
    00:33:55.345                             : en:A Loaded Gun
    00:45:09.852                             : en:The Walk You Talk
    00:52:39.467                             : en:Impromptu Dinner
    00:57:28.533                             : en:Shifts In The Game
    01:09:16.407                             : en:Rough Reality
    01:15:25.108                             : en:I Own You Till Tomorrow
    01:18:34.264                             : en:Playing For Hearts
    01:21:24.233                             : en:What Are You Gonna Do
    01:24:07.280                             : en:Joe Pays The Price
    01:28:50.079                             : en:Called On The Carpet
    01:31:18.394                             : en:Love Can"t Be Controlled
    01:34:14.570                             : en:Trust The Words
    01:37:18.070                             : en:What Now, Dr. Love
    01:39:32.200                             : en:End CreditsСвернуть


    Дополнительная информация
    • Исходник видео WEB-DL Amazon.Свернуть


    Сборка: [img]http://i1.imageban.ru/out/2018/02/13/db08a675822da337df05f97bda2ce544.gif[/img] [img]http://i2.imageban.ru/out/2018/06/09/3e40bafdab66c4a60d118eadd265cbc1.gif[/img]
    Инструкция по скачиванию
     1  Качаем uTorrent версии 2.0 и выше
     2  После установки, жмем выше под постером на ссылку Скачать [MediaGet] или Скачать .torrent
     3  Открываем скачанный файл через соответствующий клиент: MediaGet или uTorrent
     4  Ждем пока подключатся участники
     5  Качаем
    Комментарии о  Три сердца / Three of Hearts | WEB-DL 1080p 
    Ближайшее в кино
    Вверх