• Игры для PS4
  • Игры для PS3
  • Игры для XBOX360
  • Игры для PC
  • Игры для PS2
  • Игры для PSP
  • Для телефонов
  • Музыка
  • Книги/Журналы
  • Обои
  •  
    Опрос
    Удобен ли сайт в использовании?
      0
    • Очень удобен, все понятно1,1,false,300,full
    • Удобен1,2,false,300,full
    • Средне1,3,false,300,full
    • Неудобен, трудно ориентироваться1,4,false,300,full
    • Совсем неудобен1,5,false,300,full
    Статистика
    Загрузка...
    Ремо Уильямс: Приключение начинается / Remo Williams: The Adventure Begins | BDRip 1080p
    Статус  Проверено
    В закладки
    Модератор: Max

    Ремо Уильямс: Приключение начинается / Remo Williams: The Adventure Begins | BDRip 1080p [Фильмы 1985] скачать торрентом/torrent бесплатно

    Год выхода
    Язык
    Закачал
    Аноним | 09 июля в 15ч 14м 53с
    Раздел
    Отзывов
    0
    Раздают: 1 Качают: 0 Скачали: 1 Размер: 8.38 GB
    Инфо о раздаче | Благодарности |
    0/5
    0
    0 5 0
    Поддержи нас — расскажи друзьям!
    Orbitum
    Новый интернет-браузер Быстрее загружает сайты Экономит интернет—трафик Меняет оформление страницы ВК Блокирует всю рекламу на сайтах Загружает торренты как

    µTorrent

    клиент
    Объеденяет все твои чаты из соц. сетей в один Проигрывает твою музыку не заходя во ВКонтакте
    Скачать и многое другое... Подробности на сайте производителя
    Информация о фильме
    Название: Ремо Уильямс: Приключение начинается
    Оригинальное название: Remo Williams: The Adventure Begins
    Год выхода: 1985
    Жанр: Боевик, приключения, комедия
    Режиссер: Гай Хэмилтон
    В ролях: Фред Уорд, Джоэл Грей, Уилфорд Бримли, Дж.А. Престон, Джордж Кои, Чарлз Чоффи, Кейт Малгрю, Патрик Килпатрик, Майкл Патаки, Давениа МакФадден, Кози Коста, Дж.П. Романо, Джоэль Крамер, Фрэнк Симпсон, Фрэнк Феррара, Фил Нилсон, Уэбстер Уинери, Реджинальд ВелДжонсон, Джон Полито, Джин ЛеБелл, Майкл Райан, Джефф Эллин, Уилл Джеффрис, Себастьян Лигард, Роджер Кадни, Дуэйн Кларк, Фил Калотта, Том МакБрайд, Эндрю МакМиллан, Венди Газелль, Сьюзен Снайдер

    О фильме:
    Полицейский из Нью-Йорка Римо Уильямс становится участником сверхсекретного проекта. Для того, чтобы безымянная организация могла предъявить счет самым влиятельным и могущественным злодеям США, которые пользуясь лазейками в конституции остаются безнаказанными, Римо должен стать карающим мечом этой организации. Его наставником в смертельно опасном боевом корейском искусстве Синанджу, уходящем своими корнями в глубь веков источнике всех стилей восточных единоборств, становится Мастер Синанджу Чиун. Он обучает Римо «изящному искусству думать кулаками и драться мозгами». Между старым корейцем, совершенно не разбирающемся в со временных западных технологиях, и его первым в истории Синанджу «белым» учеником завязывается крепкая дружба. Вскоре Римо получает первое настоящее задание



    Страна: США
    Студия: Dick Clark Productions, Orion Pictures Corporation
    Продолжительность: 02:01:18
    Перевод: Профессиональный многоголосый, профессиональный двухголосый, авторский

    Файл
    Кодек: x264
    Качество: BDRip 1080p
    Видео: MPEG-4 AVC, 8391 Kбит/с, 1920x1040
    Звук #1: AC3, 2 ch, 224 Кбит/с | Профессиональный многоголосый (Петербург 5 канал)
    Звук #2: AC3, 2 ch, 224 Кбит/с | Профессиональный двухголосый (НТВ+)
    Звук #3: AC3, 2 ch, 224 Кбит/с | Авторский (Леонид Володарский)
    Звук #4: AC3, 2 ch, 192 Кбит/с | Авторский (Андрей Гаврилов)
    Звук #5: AC3, 2 ch, 640 Кбит/с | Английский
    Субтитры: Английские

    Награды
    Номинации:
    - 1986. Премия Оскар, США: Лучший грим,
    - 1986. Золотой глобус, США: Лучшая мужская роль второго плана (Джоэл Грей),
    - 1986. Премия Сатурн, США: Лучший фэнтези-фильм, Лучший актер второго плана (Джоэл Грей)




    Инфо-файл
    Формат                                   : Matroska
    Версия формата                           : Version 2
    Размер файла                             : 8,38 Гбайт
    Продолжительность                        : 2 ч. 1 м.
    Общий поток                              : 9893 Кбит/сек
    Название фильма                          : Remo.Williams.The.Adventure.Begins.1985.1080p.BluRay.by.zzZGVvv
    Дата кодирования                         : UTC 2018-07-09 10:27:55
    Программа кодирования                    : mkvmerge v5.8.0 ("No Sleep / Pillow") built on Sep  2 2012 15:37:04
    Библиотека кодирования                   : libebml v1.2.3 + libmatroska v1.3.0
    Attachements                             : cover.jpg

    Видео
    Идентификатор                            : 1
    Формат                                   : AVC
    Формат/Информация                        : Advanced Video Codec
    Профиль формата                          : High@L4.1
    Параметр CABAC формата                   : Да
    Параметр ReFrames формата                : 4 кадра
    Идентификатор кодека                     : V_MPEG4/ISO/AVC
    Продолжительность                        : 2 ч. 1 м.
    Битрейт                                  : 8391 Кбит/сек
    Ширина                                   : 1920 пикселей
    Высота                                   : 1040 пикселей
    Соотношение сторон                       : 1,85:1
    Режим частоты кадров                     : Постоянный
    Частота кадров                           : 23,976 кадра/сек
    Цветовое пространство                    : YUV
    Субдискретизация насыщенности            : 4:2:0
    Битовая глубина                          : 8 бит
    Тип развёртки                            : Прогрессивная
    Бит/(Пиксели*Кадры)                      : 0.175
    Размер потока                            : 6,94 Гбайт (83%)
    Заголовок                                : Remo.Williams.The.Adventure.Begins.1985.1080p.BluRay
    Библиотека кодирования                   : x264 core 142 r2431 ac76440
    Настройки программы                      : cabac=1 / ref=4 / deblock=1:-3:-3 / analyse=0x3:0x113 / me=umh / subme=8 / psy=1 / psy_rd=1.00:0.00 / mixed_ref=1 / me_range=16 / chroma_me=1 / trellis=1 / 8x8dct=1 / cqm=0 / deadzone=21,11 / fast_pskip=1 / chroma_qp_offset=-2 / threads=12 / lookahead_threads=2 / sliced_threads=0 / nr=0 / decimate=1 / interlaced=0 / bluray_compat=0 / constrained_intra=0 / bframes=3 / b_pyramid=2 / b_adapt=2 / b_bias=0 / direct=3 / weightb=1 / open_gop=0 / weightp=2 / keyint=240 / keyint_min=24 / scenecut=40 / intra_refresh=0 / rc_lookahead=50 / rc=2pass / mbtree=1 / bitrate=8391 / ratetol=1.0 / qcomp=0.60 / qpmin=0 / qpmax=69 / qpstep=4 / cplxblur=20.0 / qblur=0.5 / ip_ratio=1.40 / aq=1:1.00
    Язык                                     : English
    Default                                  : Да
    Forced                                   : Нет

    Аудио #1
    Идентификатор                            : 2
    Формат                                   : AC-3
    Формат/Информация                        : Audio Coding 3
    Расширение режима                        : CM (complete main)
    Параметр Endianness формата              : Big
    Идентификатор кодека                     : A_AC3
    Продолжительность                        : 2 ч. 1 м.
    Вид битрейта                             : Постоянный
    Битрейт                                  : 224 Кбит/сек
    Каналы                                   : 2 канала
    Расположение каналов                     : Front: L R
    Частота                                  : 48,0 КГц
    Метод сжатия                             : С потерями
    Размер потока                            : 194 Мбайт (2%)
    Заголовок                                : MVO (Петербург 5 канал)
    Язык                                     : Russian
    Default                                  : Да
    Forced                                   : Нет

    Аудио #2
    Идентификатор                            : 3
    Формат                                   : AC-3
    Формат/Информация                        : Audio Coding 3
    Расширение режима                        : CM (complete main)
    Параметр Endianness формата              : Big
    Идентификатор кодека                     : A_AC3
    Продолжительность                        : 2 ч. 1 м.
    Вид битрейта                             : Постоянный
    Битрейт                                  : 224 Кбит/сек
    Каналы                                   : 2 канала
    Расположение каналов                     : Front: L R
    Частота                                  : 48,0 КГц
    Метод сжатия                             : С потерями
    Размер потока                            : 194 Мбайт (2%)
    Заголовок                                : DVO (НТВ+)
    Язык                                     : Russian
    Default                                  : Нет
    Forced                                   : Нет

    Аудио #3
    Идентификатор                            : 4
    Формат                                   : AC-3
    Формат/Информация                        : Audio Coding 3
    Расширение режима                        : CM (complete main)
    Параметр Endianness формата              : Big
    Идентификатор кодека                     : A_AC3
    Продолжительность                        : 2 ч. 1 м.
    Вид битрейта                             : Постоянный
    Битрейт                                  : 224 Кбит/сек
    Каналы                                   : 2 канала
    Расположение каналов                     : Front: L R
    Частота                                  : 48,0 КГц
    Метод сжатия                             : С потерями
    Размер потока                            : 194 Мбайт (2%)
    Заголовок                                : AVO (Володарский)
    Язык                                     : Russian
    Default                                  : Нет
    Forced                                   : Нет

    Аудио #4
    Идентификатор                            : 5
    Формат                                   : AC-3
    Формат/Информация                        : Audio Coding 3
    Расширение режима                        : CM (complete main)
    Параметр Endianness формата              : Big
    Идентификатор кодека                     : A_AC3
    Продолжительность                        : 2 ч. 1 м.
    Вид битрейта                             : Постоянный
    Битрейт                                  : 192 Кбит/сек
    Каналы                                   : 2 канала
    Расположение каналов                     : Front: L R
    Частота                                  : 48,0 КГц
    Метод сжатия                             : С потерями
    Размер потока                            : 167 Мбайт (2%)
    Заголовок                                : AVO (Гаврилов)
    Язык                                     : Russian
    Default                                  : Нет
    Forced                                   : Нет

    Аудио #5
    Идентификатор                            : 6
    Формат                                   : AC-3
    Формат/Информация                        : Audio Coding 3
    Расширение режима                        : CM (complete main)
    Параметр Endianness формата              : Big
    Идентификатор кодека                     : A_AC3
    Продолжительность                        : 2 ч. 1 м.
    Вид битрейта                             : Постоянный
    Битрейт                                  : 640 Кбит/сек
    Каналы                                   : 2 канала
    Расположение каналов                     : Front: L R
    Частота                                  : 48,0 КГц
    Метод сжатия                             : С потерями
    Размер потока                            : 555 Мбайт (6%)
    Язык                                     : English
    Default                                  : Нет
    Forced                                   : Нет

    Текст #1
    Идентификатор                            : 7
    Формат                                   : UTF-8
    Идентификатор кодека                     : S_TEXT/UTF8
    Идентификатор кодека/Информация          : UTF-8 Plain Text
    Язык                                     : English
    Default                                  : Нет
    Forced                                   : Нет

    Текст #2
    Идентификатор                            : 8
    Формат                                   : UTF-8
    Идентификатор кодека                     : S_TEXT/UTF8
    Идентификатор кодека/Информация          : UTF-8 Plain Text
    Заголовок                                : SDH
    Язык                                     : English
    Default                                  : Нет
    Forced                                   : Нет

    Меню
    00:00:00.000                             : en:00:00:00.000
    00:09:21.616                             : en:00:09:21.603
    00:19:47.866                             : en:00:19:47.853
    00:30:31.426                             : en:00:30:31.413
    00:42:43.199                             : en:00:42:43.186
    00:51:36.523                             : en:00:51:36.510
    01:02:53.866                             : en:01:02:53.853
    01:12:10.214                             : en:01:12:10.201
    01:21:54.589                             : en:01:21:54.576
    01:31:09.352                             : en:01:31:09.339
    01:42:02.796                             : en:01:42:02.783
    01:52:48.817                             : en:01:52:48.804

    Еще похожие »

    Как скачать?
    1. Качаем UTorrent версии 2.0 и выше отсюда
    2. После установки, жмем на ссылку Скачать торрент.
    3. Открываем его через utorrent.
    4. Ждем пока подключатся участники.
    5. Качаем.


    Комментарии о Ремо Уильямс: Приключение начинается / Remo Williams: The Adventure Begins | BDRip 1080p
    Добавлять комментарии могут только зарегистрированные пользователи

    Зарегистрироваться или Войти


    Ближайшее в кино
    • Безумие Георга III дата выхода 20 ноября 2018Безумие Георга III
      Дата выхода: 20 ноября 2018
    • 7226|Догвилль|22 ноября 2018|200|300Догвилль
      Дата выхода: 22 ноября 2018
    • 1009784|Апгрейд|22 ноября 2018|200|300Апгрейд
      Дата выхода: 22 ноября 2018
    • 988782|Ральф против интернета|22 ноября 2018|200|300Ральф против интернета
      Дата выхода: 22 ноября 2018
    • 965901|Вдовы|22 ноября 2018|200|300Вдовы
      Дата выхода: 22 ноября 2018
    • 1011685|Нация убийц|22 ноября 2018|200|300Нация убийц
      Дата выхода: 22 ноября 2018
    • 891414|Жена|22 ноября 2018|200|300Жена
      Дата выхода: 22 ноября 2018
    • 934207|Мотылёк|22 ноября 2018|200|300Мотылёк
      Дата выхода: 22 ноября 2018
    • 1044912|Вечерняя школа|22 ноября 2018|200|300Вечерняя школа
      Дата выхода: 22 ноября 2018
    • 1036188|Быть Астрид Линдгрен|22 ноября 2018|200|300Быть Астрид Линдгрен
      Дата выхода: 22 ноября 2018
    • 1048852|Помешанный на времени|22 ноября 2018|200|300Помешанный на времени
      Дата выхода: 22 ноября 2018
    • 1049775|Подбросы|22 ноября 2018|200|300Подбросы
      Дата выхода: 22 ноября 2018
    • 1108741|Я — миллиардер|22 ноября 2018|200|300Я — миллиардер
      Дата выхода: 22 ноября 2018
    • 1118041|Три лица|22 ноября 2018|200|300Три лица
      Дата выхода: 22 ноября 2018
    • 1209190|МУЛЬТ в кино. Выпуск 85. Мамин праздник|24 ноября 2018|200|300МУЛЬТ в кино. Выпуск 85. Мамин праздник
      Дата выхода: 24 ноября 2018
    Вверх