• Игры для PS4
  • Игры для PS3
  • Игры для XBOX360
  • Игры для PC
  • Игры для PS2
  • Игры для PSP
  • Для телефонов
  • Музыка
  • Книги / Журналы
  • Обои
  • Опрос
    Откуда Вы о нас узнали?
      0
    • От знакомых2,1,false,300,full
    • Из социальных сетей2,2,false,300,full
    • Из поисковых систем2,3,false,300,full
    • Другое2,4,false,300,full
    Статистика
    Всего онлайн -
    Гостей -
    Пользователей -
    Короли трекера
    
    Благодарности () Закрыть
    Быстрее загружает сайты Экономит интернет—трафик Меняет оформление страницы ВК Блокирует всю рекламу на сайтах Загружает торренты как µTorrent клиент Объеденяет все твои чаты из соц. сетей в один Проигрывает твою музыку не заходя во ВКонтакте
    Новый интернет-браузер
    Оrbitum
    Скачать
    и многое другое... Подробности на сайте производителя
    Информация о фильме
    Год выхода: 2016
    Наименование: Стыд
    Оригинальное наименование: Skam
    Страна: Норвегия
    Жанр:  драма, мелодрама
    Режиссер постановщик: Юлие Андем
    В главных ролях: Юсефине Фрида Петтерсен, Иман Мескини, Ульрикке Фалк, Лиза Тейге, Тарьей Сандвик Му, Марлон Лангеланд, Томас Хэйес, Герман Томмераас

    О фильме: Сериал о жизни пяти подруг из старшей школы «Hartvig Nissens» в Осло. На примере Евы, Нуры, Вильде, Крис и Саны мы можем увидеть, какие события переживают норвежские подростки в повседневной жизни: первая любовь и измены, дружба и предательство, общественное порицание и популярность и, конечно, подготовка к выпуску.



    Файл
    Качество:  WEBRip 720p
    Видео данные: MKV, 1280x720 (16:9), 23.976 fps, 3429 Кбит/с
    Аудио данные: AAC, 2 ch, 192 Кбит/с
    Перевод: Любительский многоголосый (GreenРай Studio)
    Продолжительность: 10 x 00:28:00

    Медиаинфо
    General
    Unique ID                                : 326676440366079417603471188981378593580 (0xF5C398076290305EAF1EDC2B1B52332C)
    Complete name                            : D:ГРИНРАЙSkam.03.720p[WEB].Skam_s03e01.[720p].mkv
    Format                                   : Matroska
    Format version                           : Version 4 / Version 2
    File size                                : 726 MiB
    Duration                                 : 28 min 0 s
    Overall bit rate                         : 3 621 kb/s
    Encoded date                             : UTC 2018-07-09 06:36:23
    Writing application                      : mkvmerge v21.0.0 ("Tardigrades Will Inherit The Earth") 64-bit
    Writing library                          : libebml v1.3.5 + libmatroska v1.4.8

    Video
    ID                                       : 1
    Format                                   : AVC
    Format/Info                              : Advanced Video Codec
    Format profile                           : High@L3.1
    Format settings                          : CABAC / 1 Ref Frames
    Format settings, CABAC                   : Yes
    Format settings, RefFrames               : 1 frame
    Format settings, GOP                     : M=1, N=30
    Codec ID                                 : V_MPEG4/ISO/AVC
    Duration                                 : 28 min 0 s
    Bit rate                                 : 3 429 kb/s
    Width                                    : 1 280 pixels
    Height                                   : 720 pixels
    Display aspect ratio                     : 16:9
    Frame rate mode                          : Constant
    Frame rate                               : 23.976 (24000/1001) FPS
    Color space                              : YUV
    Chroma subsampling                       : 4:2:0
    Bit depth                                : 8 bits
    Scan type                                : Progressive
    Bits/(Pixel*Frame)                       : 0.155
    Stream size                              : 687 MiB (95%)
    Language                                 : English
    Default                                  : Yes
    Forced                                   : No

    Audio
    ID                                       : 2
    Format                                   : AAC
    Format/Info                              : Advanced Audio Codec
    Format profile                           : LC
    Codec ID                                 : A_AAC-2
    Duration                                 : 28 min 0 s
    Bit rate                                 : 192 kb/s
    Channel(s)                               : 2 channels
    Channel positions                        : Front: L R
    Sampling rate                            : 48.0 kHz
    Frame rate                               : 46.875 FPS (1024 SPF)
    Compression mode                         : Lossy
    Stream size                              : 38.0 MiB (5%)
    Language                                 : English
    Default                                  : Yes
    Forced                                   : NoСвернуть


    Внимание, имеется  видео и аудио реклама от спонсора показа

    Похожие раздачи Искать похожие
    Инструкция по скачиванию
     1  Качаем uTorrent версии 2.0 и выше
     2  После установки, жмем выше под постером на ссылку Скачать [MediaGet] или Скачать .torrent
     3  Открываем скачанный файл через соответствующий клиент: MediaGet или uTorrent
     4  Ждем пока подключатся участники
     5  Качаем
    Комментарии о  Стыд / Skam [Сезон 03] | WEBRip 720p 
    Ближайшее в кино
    Вверх