• Игры для PS4
  • Игры для PS3
  • Игры для XBOX360
  • Игры для PC
  • Игры для PS2
  • Игры для PSP
  • Для телефонов
  • Музыка
  • Книги / Журналы
  • Обои
  • Опрос
    Откуда Вы о нас узнали?
      0
    • От знакомых2,1,false,300,full
    • Из социальных сетей2,2,false,300,full
    • Из поисковых систем2,3,false,300,full
    • Другое2,4,false,300,full
    Статистика
    Всего онлайн -
    Гостей -
    Пользователей -
    Короли трекера
    
    Благодарности () Закрыть
    Быстрее загружает сайты Экономит интернет—трафик Меняет оформление страницы ВК Блокирует всю рекламу на сайтах Загружает торренты как µTorrent клиент Объеденяет все твои чаты из соц. сетей в один Проигрывает твою музыку не заходя во ВКонтакте
    Новый интернет-браузер
    Orbitum
    Скачать
    и многое другое... Подробности на сайте производителя
    Информация о фильме
    Название: Горький рис
    Оригинальное название: Riso amaro / Bitter rice
    Год выхода: 1949
    Жанр: драма
    Режиссер: Джузеппе Де Сантис
    В ролях: Витторио Гассман, Дорис Даулинг, Сильвана Мангано, Раф Валлоне, Кекко Риззоне, Нико Пепе, Адриана Сивьери, Лия Корелли, Мария Грация Франчия, Деди Ристори, Анна Маэстри, Мариэмма Барди, Мария Капуццо

    Описание: Фильм рассказывает о молодой женщине и ее связи с двумя мужчинами. Франческа и Вальтер - преступники из Северной Италии. Чтобы избежать ареста, Франческа присоединяется к группе крестьян, собирающих рис. Вальтер следует за ней в рисовые районы, и вскоре вовлекает крестьян, а также Марко, следящего за порядком, в сложный заговор, включающий грабеж, любовь и даже убийство.



    Страна: Италия
    Продолжительность: 01:49:09
    Перевод 1: Профессиональный (дублированный) киностудия имени Горького
    Перевод 2: Авторский (одноголосый закадровый) Роман Янкелевич
    Перевод 3: Любительский (одноголосый закадровый) Urasiko
    Субтитры: русские, русские, английские, итальянские
    Оригинальная аудиодорожка: итальянский

    Файл
    Качество: BDRip 1080p
    Видео: MPEG-4 AVC, 20800 kbps, 1440x1080, 23,976 fps
    Аудио 1: Русский, 192 kbps, 48,0 КГц, 16 бит, 1 канал, AC-3 - Горького
    Аудио 2: Русский, 192 kbps, 48,0 КГц, 16 бит, 2 канала, AC-3 - Янкелевич
    Аудио 3: Русский, 192 kbps, 48,0 КГц, 16 бит, 2 канала, AC-3 - Urasiko
    Аудио 4: Итальянский, 583 Кбит/сек, 48,0 КГц, 24 бит, 1 канал, FLAC

    Скриншоты
    [screen]https://img11.lostpic.net/2018/07/09/2dea96791fa20ea1207fec63bca2d42f.png[/screen][screen]https://img11.lostpic.net/2018/07/09/2084b4401dd124b5b03043b1b812023a.png[/screen][screen]https://img11.lostpic.net/2018/07/09/9bab5f493e6e2e659a84e9ed9a9b8713.png[/screen]Свернуть


    MediaInfo
    Общее
    Уникальный идентификатор                 : 121774209608087192585302690802738896352 (0x5B9CDC13958A5A23F13D1511E08B9DE0)
    Полное имя                               : G:MONARХудожественные фильмыЗарубежное киноГорький рис (1949) BDRip 1080p.mkv
    Формат                                   : Matroska
    Версия формата                           : Version 4 / Version 2
    Размер файла                             : 16,7 Гбайт
    Продолжительность                        : 1 ч. 49 м.
    Режим общего битрейта                    : Переменный
    Общий поток                              : 21,9 Мбит/сек
    Название фильма                          : Riso amaro (1949)
    Дата кодирования                         : UTC 2018-07-07 15:46:48
    Программа кодирования                    : mkvmerge v24.0.0 ("Beyond The Pale") 64-bit
    Библиотека кодирования                   : libebml v1.3.6 + libmatroska v1.4.9

    Видео
    Идентификатор                            : 1
    Формат                                   : AVC
    Формат/Информация                        : Advanced Video Codec
    Профиль формата                          : High@L4
    Настройки формата                        : CABAC / 5 Ref Frames
    Параметр CABAC формата                   : Да
    Параметр RefFrames формата               : 5 кадров
    Идентификатор кодека                     : V_MPEG4/ISO/AVC
    Продолжительность                        : 1 ч. 49 м.
    Битрейт                                  : 20,8 Мбит/сек
    Ширина                                   : 1440 пикселей
    Высота                                   : 1080 пикселей
    Соотношение сторон                       : 4:3
    Режим частоты кадров                     : Постоянный
    Частота кадров                           : 23,976 (24000/1001) кадра/сек
    Цветовое пространство                    : YUV
    Субдискретизация насыщенности            : 4:2:0
    Битовая глубина                          : 8 бит
    Тип развёртки                            : Прогрессивная
    Бит/(Пиксели*Кадры)                      : 0.557
    Размер потока                            : 15,8 Гбайт (95%)
    Библиотека кодирования                   : x264 core 148 r2638 7599210
    Настройки программы                      : cabac=1 / ref=5 / deblock=1:-3:-3 / analyse=0x3:0x133 / me=tesa / subme=11 / psy=1 / psy_rd=1.05:0.00 / mixed_ref=1 / me_range=24 / chroma_me=1 / trellis=2 / 8x8dct=1 / cqm=0 / deadzone=21,11 / fast_pskip=0 / chroma_qp_offset=-2 / threads=18 / lookahead_threads=4 / sliced_threads=0 / nr=0 / decimate=0 / interlaced=0 / bluray_compat=0 / constrained_intra=0 / bframes=12 / b_pyramid=2 / b_adapt=2 / b_bias=0 / direct=3 / weightb=1 / open_gop=0 / weightp=2 / keyint=250 / keyint_min=23 / scenecut=40 / intra_refresh=0 / rc=crf / mbtree=0 / crf=18.8 / qcomp=0.70 / qpmin=0 / qpmax=69 / qpstep=4 / ip_ratio=1.30 / pb_ratio=1.20 / aq=3:0.75
    Язык                                     : Italian
    Default                                  : Да
    Forced                                   : Нет

    Аудио #1
    Идентификатор                            : 2
    Формат                                   : AC-3
    Формат/Информация                        : Audio Coding 3
    Идентификатор кодека                     : A_AC3
    Продолжительность                        : 1 ч. 49 м.
    Вид битрейта                             : Постоянный
    Битрейт                                  : 192 Кбит/сек
    Каналы                                   : 1 канал
    Расположение каналов                     : Front: C
    Частота                                  : 48,0 КГц
    Частота кадров                           : 31,250 кадров/сек (1536 SPF)
    Битовая глубина                          : 16 бит
    Метод сжатия                             : С потерями
    Размер потока                            : 150 Мбайт (1%)
    Заголовок                                : Dub
    Язык                                     : Russian
    Default                                  : Да
    Forced                                   : Нет

    Аудио #2
    Идентификатор                            : 3
    Формат                                   : AC-3
    Формат/Информация                        : Audio Coding 3
    Идентификатор кодека                     : A_AC3
    Продолжительность                        : 1 ч. 49 м.
    Вид битрейта                             : Постоянный
    Битрейт                                  : 192 Кбит/сек
    Каналы                                   : 2 канала
    Расположение каналов                     : Front: L R
    Частота                                  : 48,0 КГц
    Частота кадров                           : 31,250 кадров/сек (1536 SPF)
    Битовая глубина                          : 16 бит
    Метод сжатия                             : С потерями
    Размер потока                            : 150 Мбайт (1%)
    Заголовок                                : AVO
    Язык                                     : Russian
    Default                                  : Нет
    Forced                                   : Нет

    Аудио #3
    Идентификатор                            : 4
    Формат                                   : AC-3
    Формат/Информация                        : Audio Coding 3
    Идентификатор кодека                     : A_AC3
    Продолжительность                        : 1 ч. 49 м.
    Вид битрейта                             : Постоянный
    Битрейт                                  : 192 Кбит/сек
    Каналы                                   : 2 канала
    Расположение каналов                     : Front: L R
    Частота                                  : 48,0 КГц
    Частота кадров                           : 31,250 кадров/сек (1536 SPF)
    Битовая глубина                          : 16 бит
    Метод сжатия                             : С потерями
    Размер потока                            : 150 Мбайт (1%)
    Заголовок                                : VO
    Язык                                     : Russian
    Default                                  : Нет
    Forced                                   : Нет

    Аудио #4
    Идентификатор                            : 5
    Формат                                   : FLAC
    Формат/Информация                        : Free Lossless Audio Codec
    Идентификатор кодека                     : A_FLAC
    Продолжительность                        : 1 ч. 49 м.
    Вид битрейта                             : Переменный
    Битрейт                                  : 583 Кбит/сек
    Каналы                                   : 1 канал
    Частота                                  : 48,0 КГц
    Частота кадров                           : 11,719 кадров/сек (4096 SPF)
    Битовая глубина                          : 24 бит
    Размер потока                            : 455 Мбайт (3%)
    Заголовок                                : original
    Библиотека кодирования                   : libFLAC 1.2.1 (UTC 2007-09-17)
    Язык                                     : Italian
    Default                                  : Нет
    Forced                                   : Нет

    Текст #1
    Идентификатор                            : 6
    Формат                                   : UTF-8
    Идентификатор кодека                     : S_TEXT/UTF8
    Идентификатор кодека/Информация          : UTF-8 Plain Text
    Продолжительность                        : 1 ч. 3 м.
    Битрейт                                  : 9 бит/сек
    ElementCount                             : 70
    Размер потока                            : 4,48 Кбайт (0%)
    Заголовок                                : srt
    Язык                                     : Russian
    Default                                  : Да
    Forced                                   : Нет

    Текст #2
    Идентификатор                            : 7
    Формат                                   : UTF-8
    Идентификатор кодека                     : S_TEXT/UTF8
    Идентификатор кодека/Информация          : UTF-8 Plain Text
    Продолжительность                        : 1 ч. 48 м.
    Битрейт                                  : 83 бит/сек
    ElementCount                             : 978
    Размер потока                            : 66,3 Кбайт (0%)
    Заголовок                                : srt
    Язык                                     : Russian
    Default                                  : Нет
    Forced                                   : Нет

    Текст #3
    Идентификатор                            : 8
    Формат                                   : UTF-8
    Идентификатор кодека                     : S_TEXT/UTF8
    Идентификатор кодека/Информация          : UTF-8 Plain Text
    Продолжительность                        : 1 ч. 48 м.
    Битрейт                                  : 54 бит/сек
    ElementCount                             : 1279
    Размер потока                            : 43,1 Кбайт (0%)
    Заголовок                                : srt
    Язык                                     : English
    Default                                  : Нет
    Forced                                   : Нет

    Текст #4
    Идентификатор                            : 9
    Формат                                   : UTF-8
    Идентификатор кодека                     : S_TEXT/UTF8
    Идентификатор кодека/Информация          : UTF-8 Plain Text
    Продолжительность                        : 1 ч. 47 м.
    Битрейт                                  : 53 бит/сек
    ElementCount                             : 964
    Размер потока                            : 42,3 Кбайт (0%)
    Заголовок                                : srt
    Язык                                     : Italian
    Default                                  : Нет
    Forced                                   : Нет

    Меню
    00:00:00.000                             : en:Opening credits
    00:01:51.695                             : en:"This is Radio Turin"
    00:05:19.861                             : en:Boogie-woogie onto the train
    00:08:39.936                             : en:Silvana
    00:12:34.504                             : en:Arrival at the barracks
    00:17:47.858                             : en:"No contract, no job"
    00:20:08.207                             : en:"Work twice as hard"
    00:23:42.004                             : en:The main scab
    00:30:33.957                             : en:Marco, Silvana, and Francesca
    00:34:10.048                             : en:A night in the barracks
    00:39:36.708                             : en:The men arrive
    00:46:59.692                             : en:Dance party in the woods
    00:54:03.198                             : en:A bigger job
    01:00:39.845                             : en:Bathing in the river
    01:04:42.295                             : en:Rainy days
    01:12:49.240                             : en:Disaster in the rain
    01:17:51.417                             : en:A gift
    01:22:25.858                             : en:"Do you ever wear a mask"
    01:28:12.537                             : en:Miss Rice Worker 1948
    01:33:02.952                             : en:Saving the crop
    01:35:21.132                             : en:"Aim carefully"
    01:40:06.667                             : en:Foiled plots
    01:42:58.547                             : en:"What"s she going to do?"
    Свернуть
    Похожие раздачи Искать похожие
    Инструкция по скачиванию
     1  Качаем uTorrent версии 2.0 и выше
     2  После установки, жмем выше под постером на ссылку Скачать [MediaGet] или Скачать .torrent
     3  Открываем скачанный файл через соответствующий клиент: MediaGet или uTorrent
     4  Ждем пока подключатся участники
     5  Качаем
    Комментарии о  Горький рис / Riso amaro / Bitter rice | BDRip 1080p 
    Ближайшее в кино
    Вверх