• Игры для PS4
  • Игры для PS3
  • Игры для XBOX360
  • Игры для PC
  • Игры для PS2
  • Игры для PSP
  • Для телефонов
  • Музыка
  • Книги/Журналы
  • Обои
  •  
    Опрос
    Удобен ли сайт в использовании?
      0
    • Очень удобен, все понятно1,1,false,300,full
    • Удобен1,2,false,300,full
    • Средне1,3,false,300,full
    • Неудобен, трудно ориентироваться1,4,false,300,full
    • Совсем неудобен1,5,false,300,full
    Статистика
    Загрузка...
    Материнство / Motherland [Сезон 01] | HDTVRip 720p, WEBRip 720p
    Статус  Проверено
    В закладки
    Модератор: Max

    Материнство / Motherland [Сезон 01] | HDTVRip 720p, WEBRip 720p [Сериалы 2016] скачать торрентом/torrent бесплатно

    Год выхода
    Категории
    Язык
    Закачал
    Max | 09 июля в 18ч 12м 38с
    Раздел
    Отзывов
    0
    Раздают: 1 Качают: 0 Скачали: 1 Размер: 4.62 GB
    Инфо о раздаче | Благодарности |
    0/5
    0
    0 5 0
    Поддержи нас — расскажи друзьям!
    Orbitum
    Новый интернет-браузер Быстрее загружает сайты Экономит интернет—трафик Меняет оформление страницы ВК Блокирует всю рекламу на сайтах Загружает торренты как

    µTorrent

    клиент
    Объеденяет все твои чаты из соц. сетей в один Проигрывает твою музыку не заходя во ВКонтакте
    Скачать и многое другое... Подробности на сайте производителя
    Название: Материнство
    Оригинальное название: Motherland
    Год выпуска: 2016
    Страна: Великобритания
    Жанр: комедия

    Перевод: Любительский [многоголосый] | KANSAI Studio
    Продолжительность: 00:28:40

    Режиссер: Джульетт Мэй , Грэхэм Лайнхэн
    В ролях: Анна Максвелл Мартин (Julia), Люси Панч (Amanda), Дайан Морган (Liz), Пол Рэди (Kevin), Филлипа Данн (Anne), Сабина Кроссен (Alpha Mum 2), Оливер Крис (Paul), Элли Хаддингтон (Marion), Терри Майнотт (Johnny), Ник Неверн (Lee), Перл Чанда (Debbie Louise), Jessica Fostekew (Claire)

    Описание:
    Сериал о неприглядной стороне родительской жизни: постоянном соперничестве, моральных (и не только) травмах и испытаниях, с которыми сталкиваются представители среднего класса, решившие завести детей. Главные героини - матери. Аманда - организованная личность, вся её квартира находится в идеальном порядке, как и её дети. Лиз - её полная противоположность, слегка рассеянная и считающая, что дети должны самовыражаться, а не ходить по струнке.

    Рейтинг:
    [img]http://www.kinopoisk.ru/rating/1105218.gif[/img]

    Серии 1-2:
    Качество: HDTVRip 720p
    Формат: MKV
    Видео: AVC, 1280x720 (16:9), 25 fps, ~3000kbps
    Аудио №1: русский / AC3 / 2.0 / 48 kHz / 192 kbps
    Аудио №2: английский / AAC LC / 2.0 / 48 kHz / ~160kbps
    Сэмпл: http://sendfile.su/1428575

    Серия 3:
    Качество: WEBRip 720p
    Формат: MKV
    Видео: AVC, 1280x720 (16:9), 25 fps, ~2300kbps
    Аудио №1: русский / AC3 / 2.0 / 48 kHz / 192 kbps
    Аудио №2: английский / AAC LC / 2.0 / 48 kHz / ~320kbps
    Сэмпл: http://sendfile.su/1428577

    Реклама: Присутствует звуковая.

    ОтчетМедиаИнфо E00-01

    General
    Unique ID                                : 239831815863477779894394278918652260756 (0xB46DED75CE487D6AA6A029543DC97194)
    Complete name                            : G:�_kansaitorMotherland.S01.720p-KANSAIMotherland.S01E00.720p.HDTV-KANSAI.mkv
    Format                                   : Matroska
    Format version                           : Version 4 / Version 2
    File size                                : 681 MiB
    Duration                                 : 28 min
    Overall bit rate                         : 3 322 kb/s
    Encoded date                             : UTC 2018-06-29 16:10:43
    Writing application                      : mkvmerge v6.7.0 ("Back to the Ground") 64bit built on Jan  8 2014 15:10:52
    Writing library                          : libebml v1.3.0 + libmatroska v1.4.1

    Video
    ID                                       : 1
    Format                                   : AVC
    Format/Info                              : Advanced Video Codec
    Format profile                           : High@L4.1
    Format settings, CABAC                   : Yes
    Format settings, ReFrames                : 5 frames
    Codec ID                                 : V_MPEG4/ISO/AVC
    Duration                                 : 28 min
    Width                                    : 1 280 pixels
    Height                                   : 720 pixels
    Display aspect ratio                     : 16:9
    Frame rate mode                          : Constant
    Frame rate                               : 25.000 FPS
    Color space                              : YUV
    Chroma subsampling                       : 4:2:0
    Bit depth                                : 8 bits
    Scan type                                : Progressive
    Writing library                          : x264 core 148 r2705 3f5ed56
    Encoding settings                        : opencl=1 / cabac=1 / ref=5 / deblock=1:0:0 / analyse=0x3:0x133 / me=umh / subme=8 / psy=1 / psy_rd=1.00:0.00 / mixed_ref=1 / me_range=16 / chroma_me=1 / trellis=1 / 8x8dct=1 / cqm=0 / deadzone=21,11 / fast_pskip=1 / chroma_qp_offset=-2 / threads=12 / lookahead_threads=2 / sliced_threads=0 / nr=0 / decimate=1 / interlaced=0 / bluray_compat=0 / constrained_intra=0 / bframes=3 / b_pyramid=2 / b_adapt=2 / b_bias=0 / direct=3 / weightb=1 / open_gop=0 / weightp=2 / keyint=250 / keyint_min=25 / scenecut=40 / intra_refresh=0 / rc_lookahead=50 / rc=crf / mbtree=1 / crf=18.0 / qcomp=0.60 / qpmin=0 / qpmax=69 / qpstep=4 / ip_ratio=1.40 / aq=1:1.00
    Language                                 : English
    Default                                  : Yes
    Forced                                   : No
    Color range                              : Limited
    Matrix coefficients                      : BT.709

    Audio #1
    ID                                       : 2
    Format                                   : AC-3
    Format/Info                              : Audio Coding 3
    Mode extension                           : CM (complete main)
    Format settings, Endianness              : Big
    Codec ID                                 : A_AC3
    Duration                                 : 28 min
    Bit rate mode                            : Constant
    Bit rate                                 : 192 kb/s
    Channel(s)                               : 2 channels
    Channel positions                        : Front: L R
    Sampling rate                            : 48.0 kHz
    Frame rate                               : 31.250 FPS (1536 spf)
    Compression mode                         : Lossy
    Stream size                              : 39.4 MiB (6%)
    Title                                    : KANSAI Studio
    Language                                 : Russian
    Default                                  : Yes
    Forced                                   : No

    Audio #2
    ID                                       : 3
    Format                                   : AAC
    Format/Info                              : Advanced Audio Codec
    Format profile                           : LC
    Codec ID                                 : A_AAC
    Duration                                 : 28 min
    Channel(s)                               : 2 channels
    Channel positions                        : Front: L R
    Sampling rate                            : 48.0 kHz
    Frame rate                               : 46.875 FPS (1024 spf)
    Compression mode                         : Lossy
    Language                                 : English
    Default                                  : No
    Forced                                   : No



    ОтчетМедиаИнфо E02

    General
    Unique ID                                : 203242500743882539005400270724187357901 (0x98E714F1DBF5F1059F54975B630102CD)
    Complete name                            : G:�_kansaitorMotherland.S01.720p-KANSAIMotherland.S01E02.720p.WEBRip-KANSAI.mkv
    Format                                   : Matroska
    Format version                           : Version 4 / Version 2
    File size                                : 568 MiB
    Duration                                 : 28 min 15 s
    Overall bit rate mode                    : Variable
    Overall bit rate                         : 2 810 kb/s
    Encoded date                             : UTC 2018-07-02 11:32:39
    Writing application                      : mkvmerge v6.7.0 ("Back to the Ground") 64bit built on Jan  8 2014 15:10:52
    Writing library                          : libebml v1.3.0 + libmatroska v1.4.1

    Video
    ID                                       : 1
    Format                                   : AVC
    Format/Info                              : Advanced Video Codec
    Format profile                           : High@L4.1
    Format settings                          : CABAC / 2 Ref Frames
    Format settings, CABAC                   : Yes
    Format settings, RefFrames               : 2 frames
    Codec ID                                 : V_MPEG4/ISO/AVC
    Duration                                 : 28 min 15 s
    Bit rate mode                            : Variable
    Maximum bit rate                         : 3 500 kb/s
    Width                                    : 1 280 pixels
    Height                                   : 720 pixels
    Display aspect ratio                     : 16:9
    Frame rate mode                          : Constant
    Frame rate                               : 25.000 FPS
    Color space                              : YUV
    Chroma subsampling                       : 4:2:0
    Bit depth                                : 8 bits
    Scan type                                : Progressive
    Default                                  : Yes
    Forced                                   : No

    Audio #1
    ID                                       : 2
    Format                                   : AC-3
    Format/Info                              : Audio Coding 3
    Codec ID                                 : A_AC3
    Duration                                 : 28 min 15 s
    Bit rate mode                            : Constant
    Bit rate                                 : 192 kb/s
    Channel(s)                               : 2 channels
    Channel positions                        : Front: L R
    Sampling rate                            : 48.0 kHz
    Frame rate                               : 31.250 FPS (1536 SPF)
    Bit depth                                : 16 bits
    Compression mode                         : Lossy
    Stream size                              : 38.8 MiB (7%)
    Title                                    : KANSAI Studio
    Language                                 : Russian
    Service kind                             : Complete Main
    Default                                  : Yes
    Forced                                   : No

    Audio #2
    ID                                       : 3
    Format                                   : AAC
    Format/Info                              : Advanced Audio Codec
    Format profile                           : LC
    Codec ID                                 : A_AAC-2
    Duration                                 : 28 min 15 s
    Channel(s)                               : 2 channels
    Channel positions                        : Front: L R
    Sampling rate                            : 48.0 kHz
    Frame rate                               : 46.875 FPS (1024 SPF)
    Compression mode                         : Lossy
    Delay relative to video                  : 20 ms
    Language                                 : English
    Default                                  : No
    Forced                                   : No



    Скриншоты
    E00-01
    [img]http://i104.fastpic.ru/big/2018/0702/af/_dd9ed1f3942ecde725ebc16f9373f2af.jpg[/img][img]http://i104.fastpic.ru/big/2018/0702/11/_d73811013102ba7ee228963b7352ed11.jpg[/img][img]http://i105.fastpic.ru/big/2018/0702/9b/_9a262dd06c8a937634afb08be026439b.jpg[/img][img]http://i104.fastpic.ru/big/2018/0702/68/_421915d9dcd5dfbe96ef1e8168658968.jpg[/img][img]http://i104.fastpic.ru/big/2018/0702/3c/_1435803bb03d28f77b6db825829d1b3c.jpg[/img][img]http://i105.fastpic.ru/big/2018/0702/d4/_8d64cee799d21cd29fe4d00aad76cbd4.jpg[/img]
    E02
    [img]http://i104.fastpic.ru/thumb/2018/0702/b6/_3d6257b895f1591fc0df7bfc5f3c66b6.jpeg[/img][img]http://i104.fastpic.ru/thumb/2018/0702/9a/_6e10fcd6e45b074092c9b4840ef6919a.jpeg[/img][img]http://i104.fastpic.ru/thumb/2018/0702/29/_04502c5660ef7d7d1a4d2d9182cf5b29.jpeg[/img][img]http://i104.fastpic.ru/thumb/2018/0702/6e/_03deee602a053995148bee2a131e4e6e.jpeg[/img][img]http://i104.fastpic.ru/thumb/2018/0702/f9/_e4c02d16003e358f3425d329a42d4cf9.jpeg[/img][img]http://i104.fastpic.ru/thumb/2018/0702/37/_ffb9a8b7de47a9b4d14cde3040d12e37.jpeg[/img]
    Еще похожие »

    Как скачать?
    1. Качаем UTorrent версии 2.0 и выше отсюда
    2. После установки, жмем на ссылку Скачать торрент.
    3. Открываем его через utorrent.
    4. Ждем пока подключатся участники.
    5. Качаем.


    Комментарии о Материнство / Motherland [Сезон 01] | HDTVRip 720p, WEBRip 720p
    Добавлять комментарии могут только зарегистрированные пользователи

    Зарегистрироваться или Войти


    Ближайшее в кино
    • Безумие Георга III дата выхода 20 ноября 2018Безумие Георга III
      Дата выхода: 20 ноября 2018
    • 7226|Догвилль|22 ноября 2018|200|300Догвилль
      Дата выхода: 22 ноября 2018
    • 1009784|Апгрейд|22 ноября 2018|200|300Апгрейд
      Дата выхода: 22 ноября 2018
    • 988782|Ральф против интернета|22 ноября 2018|200|300Ральф против интернета
      Дата выхода: 22 ноября 2018
    • 965901|Вдовы|22 ноября 2018|200|300Вдовы
      Дата выхода: 22 ноября 2018
    • 1011685|Нация убийц|22 ноября 2018|200|300Нация убийц
      Дата выхода: 22 ноября 2018
    • 891414|Жена|22 ноября 2018|200|300Жена
      Дата выхода: 22 ноября 2018
    • 934207|Мотылёк|22 ноября 2018|200|300Мотылёк
      Дата выхода: 22 ноября 2018
    • 1044912|Вечерняя школа|22 ноября 2018|200|300Вечерняя школа
      Дата выхода: 22 ноября 2018
    • 1036188|Быть Астрид Линдгрен|22 ноября 2018|200|300Быть Астрид Линдгрен
      Дата выхода: 22 ноября 2018
    • 1048852|Помешанный на времени|22 ноября 2018|200|300Помешанный на времени
      Дата выхода: 22 ноября 2018
    • 1049775|Подбросы|22 ноября 2018|200|300Подбросы
      Дата выхода: 22 ноября 2018
    • 1108741|Я — миллиардер|22 ноября 2018|200|300Я — миллиардер
      Дата выхода: 22 ноября 2018
    • 1118041|Три лица|22 ноября 2018|200|300Три лица
      Дата выхода: 22 ноября 2018
    • 1209190|МУЛЬТ в кино. Выпуск 85. Мамин праздник|24 ноября 2018|200|300МУЛЬТ в кино. Выпуск 85. Мамин праздник
      Дата выхода: 24 ноября 2018
    Вверх