• Игры для PS4
  • Игры для PS3
  • Игры для XBOX360
  • Игры для PC
  • Игры для PS2
  • Игры для PSP
  • Для телефонов
  • Музыка
  • Книги / Журналы
  • Обои
  • Опрос
    Удобен ли сайт в использовании?
      0
    • Очень удобен, все понятно1,1,false,300,full
    • Удобен1,2,false,300,full
    • Средне1,3,false,300,full
    • Неудобен, трудно ориентироваться1,4,false,300,full
    • Совсем неудобен1,5,false,300,full
    Статистика
    Всего онлайн -
    Гостей -
    Пользователей -
    Короли трекера
    
    Благодарности () Закрыть
    Быстрее загружает сайты Экономит интернет—трафик Меняет оформление страницы ВК Блокирует всю рекламу на сайтах Загружает торренты как µTorrent клиент Объеденяет все твои чаты из соц. сетей в один Проигрывает твою музыку не заходя во ВКонтакте
    Новый интернет-браузер
    Orbitum
    Скачать
    и многое другое... Подробности на сайте производителя
    Информация о фильме:
    ✦ Название: Пропавший без вести
    ✦ Оригинальное название:   The Missing
    ✦ Год выхода: 2014
    ✦ Жанр: Драма, криминал, детектив
    ✦ Режиссер: Том Шенклэнд
    ✦ В ролях: Джеймс Несбитт, Фрэнсис О`Коннор, Джейсон Флеминг, Анастасия Хилли, Макс Роттсли, Сэм Адевунми, Себастьян Бэдэрэу, Оливье Бонжур, Оливье Бони, Драгош Букур, Дидье Колфс, Донья Кролл, Абигейл Дэвис, Жозефина де Ла Бом, Фиона Гиллис и др.

    Описание фильма:
      Во время чемпионата мира по футболу 2006 года британская семья теряет во Франции своего маленького сына посреди футбольной вакханалии, которая творилась на улицах по случаю финала. Это разрушает их брак, и вскоре жена находит себе нового мужчину. Спустя восемь лет отец пропавшего мальчика нанимает французского детектива, чтобы возобновить поиски, — появились доказательства того, что ребенок все еще жив.



    ✦ Страна: Великобритания, США
    ✦ Продолжительность: ~ 00:58:00 серия
    ✦ Перевод: профессиональный (многоголосый, закадровый) |   Amedia

    [img]http://i57.fastpic.ru/big/2013/1212/16/ca4420031f482707507b7b957e10bc16.gif[/img]

    Информация о файле:
    ✦ Формат: AVI
    ✦ Качество: BDRip
    ✦ Видео: XviD, ~ 1750 kbps, 720x400
    ✦ Аудио Rus: AC3, 48 kHz, 2 ch, 192 kbps
    ✦ Аудио Eng: AC3, 48 kHz, 2 ch, 192 kbps
    ✦ Субтитры: Русские, английские

    ✔ Релиз
    рип: qqss44
    синхронизация звука и субтитров: qqss44
    субтитры: sergey84qqСвернуть


    ✔ МедиаИнфо
    Общее
    Формат                                   : AVI
    Формат/Информация                        : Audio Video Interleave
    Размер файла                             : 898 Мбайт
    Продолжительность                        : 58 м.
    Общий поток                              : 2129 Кбит/сек
    Программа кодирования                    : VirtualDubMod 1.5.10.3 | www.virtualdub-fr.org || (build 2550/release)
    Библиотека кодирования                   : VirtualDubMod build 2550/release

    Видео
    Идентификатор                            : 0
    Формат                                   : MPEG-4 Visual
    Профиль формата                          : Advanced Simple@L5
    Параметр BVOP формата                    : 1
    Параметр QPel формата                    : Нет
    Параметр GMC формата                     : Без точки перехода
    Параметр матрицы формата                 : Default (MPEG)
    Идентификатор кодека                     : XVID
    Идентификатор кодека/Подсказка           : XviD
    Продолжительность                        : 58 м.
    Битрейт                                  : 1731 Кбит/сек
    Ширина                                   : 720 пикселей
    Высота                                   : 400 пикселей
    Соотношение сторон                       : 16:9
    Частота кадров                           : 25,000 кадров/сек
    Цветовое пространство                    : YUV
    Субдискретизация насыщенности            : 4:2:0
    Битовая глубина                          : 8 бит
    Тип развёртки                            : Прогрессивная
    Метод сжатия                             : С потерями
    Бит/(Пиксели*Кадры)                      : 0.240
    Размер потока                            : 730 Мбайт (81%)
    Библиотека кодирования                   : XviD 73

    Аудио #1
    Идентификатор                            : 1
    Формат                                   : AC-3
    Формат/Информация                        : Audio Coding 3
    Расширение режима                        : CM (complete main)
    Параметр Endianness формата              : Big
    Идентификатор кодека                     : 2000
    Продолжительность                        : 58 м.
    Вид битрейта                             : Постоянный
    Битрейт                                  : 192 Кбит/сек
    Каналы                                   : 2 канала
    Расположение каналов                     : Front: L R
    Частота                                  : 48,0 КГц
    Битовая глубина                          : 16 бит
    Метод сжатия                             : С потерями
    Размер потока                            : 81,0 Мбайт (9%)
    Выравнивание                             : Разделение по промежуткам
    Продолжительность промежутка             : 40  мс. (1,00 видеокадр)
    Время предзагрузки промежутка            : 500  мс.

    Аудио #2
    Идентификатор                            : 2
    Формат                                   : AC-3
    Формат/Информация                        : Audio Coding 3
    Расширение режима                        : CM (complete main)
    Параметр Endianness формата              : Big
    Идентификатор кодека                     : 2000
    Продолжительность                        : 58 м.
    Вид битрейта                             : Постоянный
    Битрейт                                  : 192 Кбит/сек
    Каналы                                   : 2 канала
    Расположение каналов                     : Front: L R
    Частота                                  : 48,0 КГц
    Битовая глубина                          : 16 бит
    Метод сжатия                             : С потерями
    Размер потока                            : 81,0 Мбайт (9%)
    Выравнивание                             : Разделение по промежуткам
    Продолжительность промежутка             : 40  мс. (1,00 видеокадр)
    Время предзагрузки промежутка            : 500  мс.

    Свернуть


    ✔ Скриншоты
    [screen]http://i1.sendpic.org/i/7K/7KGR0royTMm8mi9dWcp3zHrYzHJ.png[/screen][screen]http://i1.sendpic.org/i/At/AtFKBt6cr9te226OJNsGi8Tx20d.png[/screen][screen]http://i1.sendpic.org/i/f6/f6rDrlUjitxNpihxQZiMkHyq6Tf.png[/screen][screen]http://i1.sendpic.org/i/zD/zDYvNMBSB0KU2Wtqi4wor61ZMBd.png[/screen][screen]http://i1.sendpic.org/i/5r/5rCE0mvvAaG99A8nuWAiRnWHGjC.png[/screen][screen]http://i1.sendpic.org/i/ps/psDBxMmCCU0339X2eNGPZSUxAdv.png[/screen]Свернуть
    Инструкция по скачиванию
     1  Качаем uTorrent версии 2.0 и выше
     2  После установки, жмем выше под постером на ссылку Скачать [MediaGet] или Скачать .torrent
     3  Открываем скачанный файл через соответствующий клиент: MediaGet или uTorrent
     4  Ждем пока подключатся участники
     5  Качаем
    Комментарии о  Пропавший без вести / The Missing [Сезон 01] | BDRip 
    Ближайшее в кино
    Вверх