• Игры для PS4
  • Игры для PS3
  • Игры для XBOX360
  • Игры для PC
  • Игры для PS2
  • Игры для PSP
  • Для телефонов
  • Музыка
  • Книги / Журналы
  • Обои
  • Опрос
    Откуда Вы о нас узнали?
      0
    • От знакомых2,1,false,300,full
    • Из социальных сетей2,2,false,300,full
    • Из поисковых систем2,3,false,300,full
    • Другое2,4,false,300,full
    Статистика
    Всего онлайн -
    Гостей -
    Пользователей -
    Короли трекера
    
    Благодарности () Закрыть
    Быстрее загружает сайты Экономит интернет—трафик Меняет оформление страницы ВК Блокирует всю рекламу на сайтах Загружает торренты как µTorrent клиент Объеденяет все твои чаты из соц. сетей в один Проигрывает твою музыку не заходя во ВКонтакте
    Новый интернет-браузер
    Orbitum
    Скачать
    и многое другое... Подробности на сайте производителя
    Информация о фильме
    Название: Эскобар
    Оригинальное название: Loving Pablo
    Год выхода: 2017
    Жанр: Биография, драма, криминал
    Режиссер: Фернандо Леон Де Араноа
    В ролях: Хавьер Бардем, Пенелопа Крус, Питер Сарсгаард, Жульет Рестрепо, Оскар Хаенада, Фреди Йэт, Рикардо Ниньо, Педро Кальво, Джованни Альварез, Дэвид Валенсиа

    О фильме: История восхождения Пабло Эскобара — его стремительного пути к миллиардам, могуществу и непростительным преступлениям. Во всесильного наркобарона влюбляется журналистка, чьи мемуары положены в основу фильма.



    Страна: Испания, Болгария, США
    Студия: B2Y EOOD, Escobar Films
    Продолжительность: 01:45:54
    Перевод: Дубляж ~ iTunes

    Файл
    Кодек: MPEG-4 AVC
    Качество: WEB-DL 1080p
    Видео: 1908x796, 4512kb/s, 23.976fps
    Звук: 384kb/s, 6ch, 48000kHz, AC3 [RUS] | iTunes
    Субтитры: Отсутствуют

    MI

    Формат                                   : Matroska
    Версия формата                           : Version 2
    Размер файла                             : 3,62 Гбайт
    Продолжительность                        : 1 ч. 45 м.
    Общий поток                              : 4898 Кбит/сек
    Дата кодирования                         : UTC 2018-07-08 18:13:33
    Программа кодирования                    : mkvmerge v8.3.0 ("Over the Horizon") 64bit
    Библиотека кодирования                   : libebml v1.3.1 + libmatroska v1.4.2

    Видео
    Идентификатор                            : 1
    Формат                                   : AVC
    Формат/Информация                        : Advanced Video Codec
    Профиль формата                          : High@L4
    Настройки формата                        : CABAC / 5 Ref Frames
    Параметр CABAC формата                   : Да
    Параметр RefFrames формата               : 5 кадров
    Идентификатор кодека                     : V_MPEG4/ISO/AVC
    Продолжительность                        : 1 ч. 45 м.
    Битрейт                                  : 4512 Кбит/сек
    Ширина                                   : 1908 пикселей
    Высота                                   : 796 пикселей
    Соотношение сторон                       : 2,40:1
    Режим частоты кадров                     : Постоянный
    Частота кадров                           : 23,976 (24000/1001) кадра/сек
    Цветовое пространство                    : YUV
    Субдискретизация насыщенности            : 4:2:0
    Битовая глубина                          : 8 бит
    Тип развёртки                            : Прогрессивная
    Бит/(Пиксели*Кадры)                      : 0.124
    Размер потока                            : 3,34 Гбайт (92%)
    Язык                                     : English
    Default                                  : Да
    Forced                                   : Нет
    Цветовой диапазон                        : Limited
    Основные цвета                           : BT.709
    Характеристики трансфера                 : BT.709
    Коэффициенты матрицы                     : BT.709

    Аудио
    Идентификатор                            : 2
    Формат                                   : AC-3
    Формат/Информация                        : Audio Coding 3
    Идентификатор кодека                     : A_AC3
    Продолжительность                        : 1 ч. 45 м.
    Вид битрейта                             : Постоянный
    Битрейт                                  : 384 Кбит/сек
    Каналы                                   : 6 каналов
    Расположение каналов                     : Front: L C R, Side: L R, LFE
    Частота                                  : 48,0 КГц
    Частота кадров                           : 31,250 кадров/сек (1536 SPF)
    Битовая глубина                          : 16 бит
    Метод сжатия                             : С потерями
    Размер потока                            : 291 Мбайт (8%)
    Язык                                     : Russian
    Default                                  : Да
    Forced                                   : Нет

    Меню
    00:00:00.000                             : en:1
    00:02:47.000                             : en:2
    00:13:05.000                             : en:3
    00:23:39.000                             : en:4
    00:34:37.000                             : en:5
    00:45:46.000                             : en:6
    00:55:39.000                             : en:7
    01:04:46.000                             : en:8
    01:13:29.000                             : en:9
    01:22:51.000                             : en:10
    01:32:34.000                             : en:11
    01:39:48.000                             : en:12
    Свернуть


    Похожие раздачи Искать похожие
    Инструкция по скачиванию
     1  Качаем uTorrent версии 2.0 и выше
     2  После установки, жмем выше под постером на ссылку Скачать [MediaGet] или Скачать .torrent
     3  Открываем скачанный файл через соответствующий клиент: MediaGet или uTorrent
     4  Ждем пока подключатся участники
     5  Качаем
    Комментарии о  Эскобар / Loving Pablo | WEB-DL 1080p 
    Ближайшее в кино
    Вверх