• Игры для PS4
  • Игры для PS3
  • Игры для XBOX360
  • Игры для PC
  • Игры для PS2
  • Игры для PSP
  • Для телефонов
  • Музыка
  • Книги / Журналы
  • Обои
  • Опрос
    Удобен ли сайт в использовании?
      0
    • Очень удобен, все понятно1,1,false,300,full
    • Удобен1,2,false,300,full
    • Средне1,3,false,300,full
    • Неудобен, трудно ориентироваться1,4,false,300,full
    • Совсем неудобен1,5,false,300,full
    Статистика
    Всего онлайн -
    Гостей -
    Пользователей -
    Короли трекера
    
    Благодарности () Закрыть
    Быстрее загружает сайты Экономит интернет—трафик Меняет оформление страницы ВК Блокирует всю рекламу на сайтах Загружает торренты как µTorrent клиент Объеденяет все твои чаты из соц. сетей в один Проигрывает твою музыку не заходя во ВКонтакте
    Новый интернет-браузер
    Orbitum
    Скачать
    и многое другое... Подробности на сайте производителя
    Информация о фильме:
    Название: Поединок
    Оригинальное название: Annapolis
    Год выхода: 2006
    Жанр:  драма, мелодрама, спорт
    Режиссер: Джастин Лин / Justin Lin
    В ролях: Джеймс Франко, Тайриз Гибсон, Мэка Фоли, Джим Пэррак, Донни Уолберг, Брайан Гудман, Билли Финниган, Джордана Брюстер, Кэти Хейн, Джимми Лин, Чарльз Нэпьер и др.

    О фильме:
    Пройдя жестокий отбор и конкурс в 42 человека на место, Джейк Хаурд вступает в элитную военно-морскую академию Аннаполис. Но решив, что главные проблемы теперь позади, он сильно ошибся.

    Беспощадная муштра, строгая дисциплина и феноменальные учебные и физические нагрузки обрушиваются на него будто каменная плитка. И вдобавок Джейка с первого дня избирает в жертвы злейший офицер академии, лейтенант Коул. Ощутив в нем задатки лидера, он начинает все сильнее давить на кадета, чтобы проверить, не сломается ли тот.

    Однако Джейк принимает вызов. Поняв, что единый способ выжить в аде — завоевать уважение главного черта, он решает принять участие в чемпионате Аннаполиса по боксу, чтобы сойтись в бою со своим мучителем там, где не имеют значение ни звания, ни статус, ни даже сила, а лишь одна воля к победе — на ринге…



    Выпущено: США
    Продолжительность: 01:43:26
    Перевод: Профессиональный (многоголосый закадровый)
    Оригинальная аудиодорожка: английский
    Субтитры: English, Russian (Полные), Russian (Форсированные) [PGS]

    Файл:
    Формат: .mkv
    Качество: BDRip 1080P
    Видео: 1920x1040, 23.976 fps, AVC, 7600 kbps
    Аудио 1: 48 kHz, AC3, 2/0 (L,R) ch, 192 kbps |MVO|
    Аудио 2: 48 kHz, AC3, 6 channels Front: L C R, Side: L R, LFE, 640 kbps [ENG]

    M/I
    General
    Unique ID                                : 235575790320808993903028961404137880043 (0xB13A3F3335C664389E3A2EA40231B9EB)
    Complete name                            : F:FILMSPoedinok.(2006)BDRip.1080p.[-=DoMiNo=-].mkv
    Format                                   : Matroska
    Format version                           : Version 4 / Version 2
    File size                                : 6.12 GiB
    Duration                                 : 1h 43mn
    Overall bit rate                         : 8 470 Kbps
    Encoded date                             : UTC 2014-04-30 13:11:21
    Writing application                      : mkvmerge v6.9.1 ("Blue Panther") 64bit built on Apr 18 2014 18:23:38
    Writing library                          : libebml v1.3.0 + libmatroska v1.4.1

    Video
    ID                                       : 1
    Format                                   : AVC
    Format/Info                              : Advanced Video Codec
    Format profile                           : High@L4.1
    Format settings, CABAC                   : Yes
    Format settings, ReFrames                : 5 frames
    Codec ID                                 : V_MPEG4/ISO/AVC
    Duration                                 : 1h 43mn
    Bit rate                                 : 7 600 Kbps
    Width                                    : 1 920 pixels
    Height                                   : 1 040 pixels
    Display aspect ratio                     : 1.85:1
    Frame rate mode                          : Constant
    Frame rate                               : 23.976 fps
    Color space                              : YUV
    Chroma subsampling                       : 4:2:0
    Bit depth                                : 8 bits
    Scan type                                : Progressive
    Bits/(Pixel*Frame)                       : 0.159
    Stream size                              : 5.40 GiB (88%)
    Writing library                          : x264 core 130 r2273 b3065e6
    Encoding settings                        : cabac=1 / ref=5 / deblock=1:-3:-3 / analyse=0x3:0x133 / me=umh / subme=11 / psy=1 / psy_rd=1.00:0.50 / mixed_ref=1 / me_range=48 / chroma_me=1 / trellis=2 / 8x8dct=1 / cqm=0 / deadzone=21,11 / fast_pskip=0 / chroma_qp_offset=-3 / threads=16 / lookahead_threads=4 / sliced_threads=0 / nr=0 / decimate=1 / interlaced=0 / bluray_compat=0 / constrained_intra=0 / bframes=16 / b_pyramid=2 / b_adapt=2 / b_bias=0 / direct=3 / weightb=1 / open_gop=0 / weightp=2 / keyint=240 / keyint_min=23 / scenecut=40 / intra_refresh=0 / rc_lookahead=150 / rc=2pass / mbtree=1 / bitrate=7600 / ratetol=1.0 / qcomp=0.70 / qpmin=10 / qpmax=51 / qpstep=4 / cplxblur=20.0 / qblur=0.5 / ip_ratio=1.40 / aq=2:2.00
    Default                                  : Yes
    Forced                                   : No

    Audio #1
    ID                                       : 2
    Format                                   : AC-3
    Format/Info                              : Audio Coding 3
    Format profile                           : Dolby Digital
    Mode extension                           : CM (complete main)
    Format settings, Endianness              : Big
    Codec ID                                 : A_AC3
    Duration                                 : 1h 43mn
    Bit rate mode                            : Constant
    Bit rate                                 : 192 Kbps
    Channel(s)                               : 2 channels
    Channel positions                        : Front: L R
    Sampling rate                            : 48.0 KHz
    Bit depth                                : 16 bits
    Compression mode                         : Lossy
    Stream size                              : 142 MiB (2%)
    Default                                  : Yes
    Forced                                   : No

    Audio #2
    ID                                       : 3
    Format                                   : AC-3
    Format/Info                              : Audio Coding 3
    Mode extension                           : CM (complete main)
    Format settings, Endianness              : Big
    Codec ID                                 : A_AC3
    Duration                                 : 1h 43mn
    Bit rate mode                            : Constant
    Bit rate                                 : 640 Kbps
    Channel(s)                               : 6 channels
    Channel positions                        : Front: L C R, Side: L R, LFE
    Sampling rate                            : 48.0 KHz
    Bit depth                                : 16 bits
    Compression mode                         : Lossy
    Stream size                              : 474 MiB (8%)
    Default                                  : No
    Forced                                   : No

    Text #1
    ID                                       : 4
    Format                                   : PGS
    Muxing mode                              : zlib
    Codec ID                                 : S_HDMV/PGS
    Codec ID/Info                            : The same subtitle format used on BDs/HD-DVDs
    Language                                 : English
    Default                                  : Yes
    Forced                                   : No

    Text #2
    ID                                       : 5
    Format                                   : PGS
    Muxing mode                              : zlib
    Codec ID                                 : S_HDMV/PGS
    Codec ID/Info                            : The same subtitle format used on BDs/HD-DVDs
    Language                                 : Russian
    Default                                  : No
    Forced                                   : No

    Text #3
    ID                                       : 6
    Format                                   : PGS
    Muxing mode                              : zlib
    Codec ID                                 : S_HDMV/PGS
    Codec ID/Info                            : The same subtitle format used on BDs/HD-DVDs
    Language                                 : Russian
    Default                                  : No
    Forced                                   : No

    Text #4
    ID                                       : 7
    Format                                   : PGS
    Muxing mode                              : zlib
    Codec ID                                 : S_HDMV/PGS
    Codec ID/Info                            : The same subtitle format used on BDs/HD-DVDs
    Language                                 : Russian
    Default                                  : No
    Forced                                   : NoСвернуть


    Похожие раздачи Искать похожие
    Инструкция по скачиванию
     1  Качаем uTorrent версии 2.0 и выше
     2  После установки, жмем выше под постером на ссылку Скачать [MediaGet] или Скачать .torrent
     3  Открываем скачанный файл через соответствующий клиент: MediaGet или uTorrent
     4  Ждем пока подключатся участники
     5  Качаем
    Комментарии о  Поединок / Аннаполис / Annapolis | BDRip 1080p 
    Ближайшее в кино
    Вверх