• Игры для PS4
  • Игры для PS3
  • Игры для XBOX360
  • Игры для PC
  • Игры для PS2
  • Игры для PSP
  • Для телефонов
  • Музыка
  • Книги / Журналы
  • Обои
  • Опрос
    Удобен ли сайт в использовании?
      0
    • Очень удобен, все понятно1,1,false,300,full
    • Удобен1,2,false,300,full
    • Средне1,3,false,300,full
    • Неудобен, трудно ориентироваться1,4,false,300,full
    • Совсем неудобен1,5,false,300,full
    Статистика
    Всего онлайн -
    Гостей -
    Пользователей -
    Короли трекера
    
    Благодарности () Закрыть
    Быстрее загружает сайты Экономит интернет—трафик Меняет оформление страницы ВК Блокирует всю рекламу на сайтах Загружает торренты как µTorrent клиент Объеденяет все твои чаты из соц. сетей в один Проигрывает твою музыку не заходя во ВКонтакте
    Новый интернет-браузер
    Orbitum
    Скачать
    и многое другое... Подробности на сайте производителя
    Страна: Великобритания, США, Испания
    Жанр:  боевик, драма, приключения
    Год выпуска: 2014
    Продолжительность: 02:17:20

    Перевод: Профессиональный (дублированный)
    Субтитры: нет
    Оригинальная аудиодорожка: нет

    Режиссер: Ридли Скотт / Ridley Scott

    В ролях: Кристиан Бэйл, Джоэл Эдгертон, Джон Туртурро, Аарон Пол, Бен Мендельсон, Мария Вальверде, Сигурни Уивер, Бен Кингсли, Хиам Аббасс, Исаак Эндрюс, Юэн Бремнер, Индира Варма, Голшифте Фарахани, Гасан Масуд, Тара Фитцджеральд, Дар Салим, Эндрю Тарбет, Кен Бонс, Филип Ардитти, Хэл Хеветсон

    Описание: Ветхозаветная история о великом пророке Моисее и освобождении еврейского народа из египетского плена. Моисей появился на свет в те времена, когда фараон приказал убивать всех новорожденных мальчиков еврейского происхождения. Чтобы спасти его, мать положила малыша в корзину из тростника и отправила вниз по Нилу.
    Ребенка нашла дочь фараона, которая усыновила его и растила рядом с Рамсесом — будущим фараоном. Много лет спустя, став мужчиной, Моисей бежит из Египта, а затем возвращается туда по велению Господа, чтобы избавить свой народ от оков рабства…



    Тип релиза: HDTV 1080i
    Контейнер: TS

    Видео: AVC, 1920x1080 (16:9), 25.000 fps, 6 802 Kbps (0.131 bit/pixel)
    Аудио: MP2, 48.0 KHz, 2 ch, 192 Kbps, CBR (Russian)

    MediaInfo

    бщее
    Идентификатор                            : 7 (0x7)
    Полное имя                               : M:Исход. Цари и боги.ts
    Формат                                   : MPEG-TS
    Размер файла                             : 7,06 Гбайт
    Продолжительность                        : 2 ч. 17 м.
    Режим общего битрейта                    : Переменный
    Общий поток                              : 7359 Кбит/сек

    Видео
    Идентификатор                            : 2141 (0x85D)
    Идентификатор меню                       : 21004 (0x520C)
    Формат                                   : AVC
    Формат/Информация                        : Advanced Video Codec
    Профиль формата                          : Main@L4
    Параметр CABAC формата                   : Да
    Параметр ReFrames формата                : 4 кадра
    Идентификатор кодека                     : 27
    Продолжительность                        : 2 ч. 17 м.
    Битрейт                                  : 6802 Кбит/сек
    Ширина                                   : 1920 пикселей
    Высота                                   : 1080 пикселей
    Соотношение сторон                       : 16:9
    Частота кадров                           : 25,000 кадров/сек
    Цветовое пространство                    : YUV
    Субдискретизация насыщенности            : 4:2:0
    Битовая глубина                          : 8 бит
    Тип развёртки                            : Чересстрочная
    Метод сохранения типа развёртки          : Раздельные поля
    Порядок развёртки                        : Верхнее поле первое
    Бит/(Пиксели*Кадры)                      : 0.131
    Размер потока                            : 6,53 Гбайт (92%)
    Цветовой диапазон                        : Limited
    Основные цвета                           : BT.709
    Характеристики трансфера                 : BT.709
    Коэффициенты матрицы                     : BT.709

    Аудио
    Идентификатор                            : 2142 (0x85E)
    Идентификатор меню                       : 21004 (0x520C)
    Формат                                   : MPEG Audio
    Версия формата                           : Version 1
    Профиль формата                          : Layer 2
    Идентификатор кодека                     : 4
    Продолжительность                        : 2 ч. 17 м.
    Вид битрейта                             : Постоянный
    Битрейт                                  : 192 Кбит/сек
    Каналы                                   : 2 канала
    Частота                                  : 48,0 КГц
    Метод сжатия                             : С потерями
    Задержка видео                           : -18 мс.
    Размер потока                            : 189 Мбайт (3%)
    Язык                                     : Russian

    Свернуть


    Скриншоты

    [screen]http://i1.imageban.ru/out/2016/11/02/b61bc2bb7fc8c377b2a95b4b7efc088e.png[/screen][screen]http://i4.imageban.ru/out/2016/11/02/3bb320ea46e53180ac0d2852b18ee37b.png[/screen][screen]http://i2.imageban.ru/out/2016/11/02/624603ce944d6c87130ad22517f1634b.png[/screen]
    Свернуть
    Похожие раздачи Искать похожие
    Инструкция по скачиванию
     1  Качаем uTorrent версии 2.0 и выше
     2  После установки, жмем выше под постером на ссылку Скачать [MediaGet] или Скачать .torrent
     3  Открываем скачанный файл через соответствующий клиент: MediaGet или uTorrent
     4  Ждем пока подключатся участники
     5  Качаем
    Комментарии о  Исход: Цари и боги / Exodus: Gods and Kings | HDTV 1080i 
    Ближайшее в кино
    Вверх