• Игры для PS4
  • Игры для PS3
  • Игры для XBOX360
  • Игры для PC
  • Игры для PS2
  • Игры для PSP
  • Для телефонов
  • Музыка
  • Книги / Журналы
  • Обои
  • Опрос
    Откуда Вы о нас узнали?
      0
    • От знакомых2,1,false,300,full
    • Из социальных сетей2,2,false,300,full
    • Из поисковых систем2,3,false,300,full
    • Другое2,4,false,300,full
    Статистика
    Всего онлайн -
    Гостей -
    Пользователей -
    Короли трекера
    
    Благодарности () Закрыть
    Быстрее загружает сайты Экономит интернет—трафик Меняет оформление страницы ВК Блокирует всю рекламу на сайтах Загружает торренты как µTorrent клиент Объеденяет все твои чаты из соц. сетей в один Проигрывает твою музыку не заходя во ВКонтакте
    Новый интернет-браузер
    Orbitum
    Скачать
    и многое другое... Подробности на сайте производителя
    Информация о фильме
    Год выхода: 2017
    Наименование: Цирк уродов
    Оригинальное наименование: Freak Show
    Страна: США
    Жанр:  драма, комедия
    Режиссер постановщик: Труди Стайлер
    В главных ролях: Эбигейл Бреслин, Анна-София Робб, Алекс Лоутер, Лаверн Кокс, Бетт Мидлер, Йен Нельсон, Уилла Фицджералд, Мики Самнер, Селия Уэстон, Майкл Парк

    О фильме: Ультраконсервативная и насквозь элитарная школа для богачей встает на уши с появлением нового студента - эпатажного и свободолюбивого подростка Билли Блума. Он потрясает «приличное общество», одеваясь и красясь, как девушка. В ответ на жестокую массовую травлю Билли решает участвовать в конкурсе «Королева школы».



    Файл
    Качество: HDRip 1080p
    Видео данные: MKV, 1920x800 (2.40:1), 23.976 fps, 10000 Кбит/с
    Аудио данные: AC3, 2 ch, 640 Кбит/с
    Перевод: Любительский многоголосый (GreenРай Studio)
    Продолжительность: 01:31:50

    Медиаинфо
    General
    Unique ID                                : 174057881030511167485222781911474539851 (0x82F2541973043E519976342001A68D4B)
    Complete name                            : E:ГРИНРАЙFreak Show.2017.P.BDRip.1080p.mkv
    Format                                   : Matroska
    Format version                           : Version 4 / Version 2
    File size                                : 6.68 GiB
    Duration                                 : 1 h 31 min
    Overall bit rate mode                    : Constant
    Overall bit rate                         : 10.4 Mb/s
    Encoded date                             : UTC 2018-07-09 12:29:25
    Writing application                      : mkvmerge v6.5.0 ("Isn"t she lovely") built on Oct 20 2013 12:50:05
    Writing library                          : libebml v1.3.0 + libmatroska v1.4.1

    Video
    ID                                       : 1
    Format                                   : AVC
    Format/Info                              : Advanced Video Codec
    Format profile                           : Main@L4
    Format settings                          : CABAC / 3 Ref Frames
    Format settings, CABAC                   : Yes
    Format settings, RefFrames               : 3 frames
    Format settings, GOP                     : M=1, N=15
    Codec ID                                 : V_MPEG4/ISO/AVC
    Duration                                 : 1 h 31 min
    Bit rate mode                            : Constant
    Bit rate                                 : 10 000 kb/s
    Width                                    : 1 920 pixels
    Height                                   : 800 pixels
    Display aspect ratio                     : 2.40:1
    Frame rate mode                          : Constant
    Frame rate                               : 23.976 (24000/1001) FPS
    Standard                                 : NTSC
    Color space                              : YUV
    Chroma subsampling                       : 4:2:0
    Bit depth                                : 8 bits
    Scan type                                : Progressive
    Bits/(Pixel*Frame)                       : 0.272
    Stream size                              : 6.14 GiB (92%)
    Language                                 : English
    Default                                  : Yes
    Forced                                   : No
    Color range                              : Limited

    Audio
    ID                                       : 2
    Format                                   : AC-3
    Format/Info                              : Audio Coding 3
    Codec ID                                 : A_AC3
    Duration                                 : 1 h 31 min
    Bit rate mode                            : Constant
    Bit rate                                 : 640 kb/s
    Channel(s)                               : 2 channels
    Channel positions                        : Front: L R
    Sampling rate                            : 48.0 kHz
    Frame rate                               : 31.250 FPS (1536 SPF)
    Bit depth                                : 16 bits
    Compression mode                         : Lossy
    Stream size                              : 420 MiB (6%)
    Service kind                             : Complete Main
    Default                                  : Yes
    Forced                                   : NoСвернуть


    Внимание, имеется  видео и аудио реклама от спонсора показа

    Похожие раздачи Искать похожие
    Инструкция по скачиванию
     1  Качаем uTorrent версии 2.0 и выше
     2  После установки, жмем выше под постером на ссылку Скачать [MediaGet] или Скачать .torrent
     3  Открываем скачанный файл через соответствующий клиент: MediaGet или uTorrent
     4  Ждем пока подключатся участники
     5  Качаем
    Комментарии о  Цирк уродов / Freak Show | HDRip 1080p 
    Ближайшее в кино
    Вверх