• Игры для PS4
  • Игры для PS3
  • Игры для XBOX360
  • Игры для PC
  • Игры для PS2
  • Игры для PSP
  • Для телефонов
  • Музыка
  • Книги / Журналы
  • Обои
  • Опрос
    Удобен ли сайт в использовании?
      0
    • Очень удобен, все понятно1,1,false,300,full
    • Удобен1,2,false,300,full
    • Средне1,3,false,300,full
    • Неудобен, трудно ориентироваться1,4,false,300,full
    • Совсем неудобен1,5,false,300,full
    Статистика
    Всего онлайн -
    Гостей -
    Пользователей -
    Короли трекера
    
    Благодарности () Закрыть
    Быстрее загружает сайты Экономит интернет—трафик Меняет оформление страницы ВК Блокирует всю рекламу на сайтах Загружает торренты как µTorrent клиент Объеденяет все твои чаты из соц. сетей в один Проигрывает твою музыку не заходя во ВКонтакте
    Новый интернет-браузер
    Orbitum
    Скачать
    и многое другое... Подробности на сайте производителя
    Информация о фильме
    Название: Человек-паук 2
    Оригинальное название: Spider-Man 2
    Год выхода: 2004
    Жанр:  фантастика, боевик, приключения
    Режиссер: Сэм Рэйми
    В ролях: Тоби Магуайр, Кирстен Данст, Джеймс Франко, Альфред Молина, Розмари Харрис, Дж.К. Симмонс, Донна Мерфи, Дэниэл Гиллис, Дилан Бейкер, Билл Нанн

    [img]http://i53.fastpic.ru/big/2013/0105/a1/2cf3e00006ce25cc0dc9493a7173a5a1.gif[/img]
    С момента событий, произошедших в первом фильме, прошло два года. Тихоня Питер Паркер сталкивается с новыми проблемами: он борется со своим «даром и проклятьем», отчаянно пытаясь балансировать на грани двух своих жизней: метающего паутину супергероя Человека-Паука и обычного студента колледжа…

    Мучимый своими секретами, Питер понимает, что его отношения со всеми, кто ему дорог, в опасности или заходят в тупик. Его любовь к Мэри Джейн становится еще сильнее, обостряемая порывом Питера раскрыть ей свой секрет и признаться в любви. Дружба с Гарри осложняется горечью молодого Осборна по умершему отцу и всё большим желанием отомстить Человеку-Пауку.

    Даже любимая тетушка Мэй, у которой были нелегкие времена после смерти дяди Бена, начинает что-то подозревать насчет своего племянника. Жизнь Питера становится еще более сложной, когда он сталкивается с новым суперзлодеем — доктором Отто Октавиусом. Питер должен использовать все свои суперспособности, чтобы одолеть этого жестокого безумца с восемью конечностями…



    Страна: США
    Студия: Columbia Pictures Corporation, Laura Ziskin Production, Marvel Enterprises
    Продолжительность: 02:07:35
    Перевод: Дубляж + Профессиональный (двухголосый, закадровый) Tycoon Studio

    Файл
    Кодек: H.264
    Качество: WEB-DLRip-720 от SuperMin
    Видео: 1280x720 (16:9), 3389 kbps, 23.976 fps
    Звук: Русский (AC-3, 6ch, 448 kbps)
    Русский (AC-3, 6ch, 448 kbps)
    Оригинал (AC-3, 6ch, 640 kbps)
    Субтитры: Русские (x2), английские

    MI
    General
    Unique ID                   : 217375595848135876897939859154682262083 (0xA389045504FC69FFA85BDC3865A03243)
    Complete name               : H:ФИЛЬМЫЧеловек-Паук-2 (Open Matte).mkv
    Format                      : Matroska
    Format version              : Version 4 / Version 2
    File size                   : 4.39 GiB
    Duration                    : 2 h 7 min
    Overall bit rate            : 4 927 kb/s
    Movie name                  : Человек-паук 2 / Spider-Man 2 (2004) (Theatrical) (Open Matte) - #LORDKILL#
    Encoded date                : UTC 2018-07-09 17:07:45
    Writing application         : mkvmerge v9.5.0 ("Quiet Fire") 64bit
    Writing library             : libebml v1.3.4 + libmatroska v1.4.5

    Video
    ID                          : 1
    Format                      : AVC
    Format/Info                 : Advanced Video Codec
    Format profile              : High@L4.1
    Format settings, CABAC      : Yes
    Format settings, ReFrames   : 9 frames
    Codec ID                    : V_MPEG4/ISO/AVC
    Duration                    : 2 h 7 min
    Bit rate                    : 3 389 kb/s
    Width                       : 1 280 pixels
    Height                      : 720 pixels
    Display aspect ratio        : 16:9
    Frame rate mode             : Constant
    Frame rate                  : 23.976 (24000/1001) FPS
    Color space                 : YUV
    Chroma subsampling          : 4:2:0
    Bit depth                   : 8 bits
    Scan type                   : Progressive
    Bits/(Pixel*Frame)          : 0.153
    Stream size                 : 3.02 GiB (69%)
    Writing library             : x264 core 146 r2538 121396c
    Encoding settings           : cabac=1 / ref=9 / deblock=1:-3:-3 / analyse=0x3:0x113 / me=umh / subme=11 / psy=1 / psy_rd=1.00:0.15 / mixed_ref=1 / me_range=32 / chroma_me=1 / trellis=2 / 8x8dct=1 / cqm=0 / deadzone=21,11 / fast_pskip=0 / chroma_qp_offset=-3 / threads=12 / lookahead_threads=2 / sliced_threads=0 / nr=0 / decimate=1 / interlaced=0 / bluray_compat=0 / constrained_intra=0 / bframes=8 / b_pyramid=2 / b_adapt=2 / b_bias=0 / direct=1 / weightb=1 / open_gop=0 / weightp=2 / keyint=240 / keyint_min=23 / scenecut=40 / intra_refresh=0 / rc=crf / mbtree=0 / crf=20.0 / qcomp=0.60 / qpmin=0 / qpmax=69 / qpstep=4 / ip_ratio=1.40 / pb_ratio=1.30 / aq=1:1.00
    Language                    : English
    Default                     : Yes
    Forced                      : No

    Audio #1
    ID                          : 2
    Format                      : AC-3
    Format/Info                 : Audio Coding 3
    Mode extension              : CM (complete main)
    Format settings, Endianness : Big
    Codec ID                    : A_AC3
    Duration                    : 2 h 7 min
    Bit rate mode               : Constant
    Bit rate                    : 448 kb/s
    Channel(s)                  : 6 channels
    Channel positions           : Front: L C R, Side: L R, LFE
    Sampling rate               : 48.0 kHz
    Frame rate                  : 31.250 FPS (1536 spf)
    Bit depth                   : 16 bits
    Compression mode            : Lossy
    Stream size                 : 409 MiB (9%)
    Title                       : Дубляж - BluRay CEE
    Language                    : Russian
    Default                     : Yes
    Forced                      : No

    Audio #2
    ID                          : 3
    Format                      : AC-3
    Format/Info                 : Audio Coding 3
    Mode extension              : CM (complete main)
    Format settings, Endianness : Big
    Codec ID                    : A_AC3
    Duration                    : 2 h 7 min
    Bit rate mode               : Constant
    Bit rate                    : 448 kb/s
    Channel(s)                  : 6 channels
    Channel positions           : Front: L C R, Side: L R, LFE
    Sampling rate               : 48.0 kHz
    Frame rate                  : 31.250 FPS (1536 spf)
    Bit depth                   : 16 bits
    Compression mode            : Lossy
    Stream size                 : 409 MiB (9%)
    Title                       : Профессиональный, двухголосый (Tycoon Studio)
    Language                    : Russian
    Default                     : No
    Forced                      : No

    Audio #3
    ID                          : 4
    Format                      : E-AC-3
    Format/Info                 : Enhanced Audio Coding 3
    Format settings, Endianness : Big
    Codec ID                    : A_EAC3
    Duration                    : 2 h 7 min
    Bit rate mode               : Constant
    Bit rate                    : 640 kb/s
    Channel(s)                  : 6 channels
    Channel positions           : Front: L C R, Side: L R, LFE
    Sampling rate               : 48.0 kHz
    Frame rate                  : 187.500 FPS (256 spf)
    Compression mode            : Lossy
    Stream size                 : 584 MiB (13%)
    Title                       : E-AC3 5.1 640Kbps (Оригинал, Amazon)
    Language                    : English
    Default                     : No
    Forced                      : No

    Text #1
    ID                          : 5
    Format                      : UTF-8
    Codec ID                    : S_TEXT/UTF8
    Codec ID/Info               : UTF-8 Plain Text
    Duration                    : 2 h 0 min
    Bit rate                    : 68 b/s
    Count of elements           : 1045
    Stream size                 : 61.0 KiB (0%)
    Title                       : Kinomania
    Language                    : Russian
    Default                     : No
    Forced                      : No

    Text #2
    ID                          : 6
    Format                      : UTF-8
    Codec ID                    : S_TEXT/UTF8
    Codec ID/Info               : UTF-8 Plain Text
    Duration                    : 1 h 58 min
    Bit rate                    : 69 b/s
    Count of elements           : 1094
    Stream size                 : 60.5 KiB (0%)
    Title                       : Tycoon Studio
    Language                    : Russian
    Default                     : No
    Forced                      : No

    Text #3
    ID                          : 7
    Format                      : UTF-8
    Codec ID                    : S_TEXT/UTF8
    Codec ID/Info               : UTF-8 Plain Text
    Duration                    : 1 h 58 min
    Bit rate                    : 38 b/s
    Count of elements           : 1093
    Stream size                 : 33.1 KiB (0%)
    Language                    : English
    Default                     : No
    Forced                      : No

    Menu
    00:00:00.000                : en:Studio Logos
    00:00:31.000                : en:Opening Credits
    00:03:11.000                : en:Peter"s Job Is on the Line; Multiple Locations
    00:04:35.000                : en:Peter Rushes to Make the Delivery; Multiple Locations
    00:05:57.000                : en:Peter Loses His Job; Multiple Locations
    00:07:32.000                : en:Peter Sells His Photographs; Daily Bugle
    00:09:02.000                : en:Peter Races to Class; University
    00:10:15.000                : en:Peter"s Friends Surprise Him; Parker House
    00:12:31.000                : en:May Expresses Her Longing to be with Ben; Parker House
    00:14:38.000                : en:Peter Hides His Feelings for Mary Jane; Front Yard
    00:17:16.000                : en:Mr. Ditkovich Approches Peter about Rent; Apartment Building
    00:18:40.000                : en:Peter interviews Dr. Octavius; Oscorp
    00:22:22.000                : en:Peter  Gets Ready for Mary Jane"s Show; Multiple Locations
    00:24:29.000                : en:Peter Gets Caught Up Fighting Crime; Street
    00:26:04.000                : en:Peter Is Denied Entry to the Theater; Ivar Theatre
    00:27:16.000                : en:Peter Sees Mary Jane after the Show; Street
    00:29:44.000                : en:Spider-Man Takes the Elevator; Multiple locations
    00:31:13.000                : en:Peter Leaves a Message for Mary Jane; Multiple Locations
    00:33:20.000                : en:Peter Attends Dr. Octavius"s Demonstration; Oscorp
    00:39:17.000                : en:Injured People Are Rushed to the Hospital; Street
    00:40:00.000                : en:Doctors Attempt to Remove the Arms from Octavious; Hospital
    00:43:19.000                : en:Jameson Names the New Villian; Daily Bugle
    00:44:48.000                : en:Doc Ock Asseses His SItuation; Ock"s Lair
    00:47:06.000                : en:Peter and May Try to Get a Loan; Bank
    00:50:10.000                : en:Spider-Man and Doc Ock Fight; Multiple Locations
    00:53:11.000                : en:Peter Takes Pictures at the Science Event; Planetarium
    00:55:16.000                : en:Mary Jane Dismisses Peter; Planetarium
    00:58:15.000                : en:Peter Is Upset and Doc Ock Works in His Lab; Multiple Locations
    01:00:13.000                : en:Peter Visits a Doctor; Clinic
    01:01:39.000                : en:Peter Remembers Ben"s Advice; Multiple Locations
    01:03:51.000                : en:Peter Returns to His Pre-Spider-Man Lifestyle; Multiple Locations
    01:05:34.000                : en:Peter Attends Mary Jane"s Play; Multiple Locations
    01:08:24.000                : en:Jonah Receives an Amazing Gift; Daily Bugle
    01:09:48.000                : en:Peter Tells May the Truth; Multiple Locations
    01:13:58.000                : en:Doc Ock Pays Harry a Visit; Multiple Locations
    01:16:52.000                : en:Peter Rushes to the Rescue; Bulding
    01:19:26.000                : en:Peter Doubts His Decision; Peter"s Apartment
    01:21:34.000                : en:May Gives Peter Words of Encouragement; May"s Front Yard
    01:25:26.000                : en:Peter Tries to Get Back His Powers; Rooftop
    01:26:59.000                : en:Mary Jane Goes Over Wedding RSVP"s; John"s House
    01:28:21.000                : en:Peter Tells Mary Jane His Feelings; Restuarant
    01:33:15.000                : en:Peter Reclaims His Suit; Daily Bugle
    01:34:07.000                : en:Spider-Man and Doc Ock Face Off; Multiple Locations
    01:37:41.000                : en:Spider-Man Saves the Passengers; Train
    01:42:48.000                : en:Doc Ock Brings His Bargaining Chip; Harry"s House
    01:45:03.000                : en:Spider-Man Tries to Save Mary Jane; Ock"s Lair
    01:48:13.000                : en:Spider-Man Reasons with Doc Ock; Ock"s Lair
    01:51:45.000                : en:Peter Saves Mary Jane; Ock"s Lair
    01:55:38.000                : en:Harry Has Visions of His Father; Harry"s House
    01:58:07.000                : en:Mary Jane Makes a Tough Decision; Church
    01:59:38.000                : en:Mary Jane Makes a Confession to Peter; Peter"s Apartment
    02:02:56.000                : en:End Credits
    Свернуть


    Скриншоты
    [screen]http://i104.fastpic.ru/big/2018/0709/50/9a3889294abb9efcbab7d9ef8d3d0f50.jpg[/screen][screen]http://i105.fastpic.ru/big/2018/0709/21/bb209e6367c67eea48166b47abae1221.jpg[/screen][screen]http://i105.fastpic.ru/big/2018/0709/80/662c7347dc20187dfa5d33444afd3d80.jpg[/screen]Свернуть
    Похожие раздачи Искать похожие
    Инструкция по скачиванию
     1  Качаем uTorrent версии 2.0 и выше
     2  После установки, жмем выше под постером на ссылку Скачать [MediaGet] или Скачать .torrent
     3  Открываем скачанный файл через соответствующий клиент: MediaGet или uTorrent
     4  Ждем пока подключатся участники
     5  Качаем
    Комментарии о  Человек-паук 2 / Spider-Man 2 | WEB-DLRip 
    Ближайшее в кино
    Вверх