• Игры для PS4
  • Игры для PS3
  • Игры для XBOX360
  • Игры для PC
  • Игры для PS2
  • Игры для PSP
  • Для телефонов
  • Музыка
  • Книги/Журналы
  • Обои
  •  
    Опрос
    Удобен ли сайт в использовании?
      0
    • Очень удобен, все понятно1,1,false,300,full
    • Удобен1,2,false,300,full
    • Средне1,3,false,300,full
    • Неудобен, трудно ориентироваться1,4,false,300,full
    • Совсем неудобен1,5,false,300,full
    Статистика
    Загрузка...
    Короли трекера
    Дом призраков / Ghost House | DVDRip-AVC
    Статус  Проверено
    В закладки
    Модератор: Max

    Дом призраков / Ghost House | DVDRip-AVC [Фильмы 2017] скачать торрентом/torrent бесплатно

    Год выхода
    Категории
    Язык
    Закачал
    Max | 11 июля в 09ч 41м 21с
    Раздел
    Отзывов
    0
    Раздают: 8 Качают: 0 Скачали: 23 Размер: 1.49 GB
    Инфо о раздаче | Благодарности |
    0/5
    0
    0 5 0
    Поддержи нас — расскажи друзьям!
    Orbitum
    Новый интернет-браузер Быстрее загружает сайты Экономит интернет—трафик Меняет оформление страницы ВК Блокирует всю рекламу на сайтах Загружает торренты как

    µTorrent

    клиент
    Объеденяет все твои чаты из соц. сетей в один Проигрывает твою музыку не заходя во ВКонтакте
    Скачать и многое другое... Подробности на сайте производителя
    Информация о фильме
    Название: Дом призраков
    Оригинальное название: Ghost House
    Год выхода: 2017
    Жанр: ужасы, триллер
    Режиссер: Рич Рэгсдэйл
    В ролях: Скаут Тэйлор-Комптон, Джеймс Хеберт, Марк Бун Джуниор, Расселл Джеффри Бэнкс, Рич Ли Грэй, Элана Крауш, Кевин Рэгсдэйл, Ян Вэньчу, Майкл С. Нью, Катрина Грэй

    О фильме:
    Молодая пара отправляется в путешествие в Таиланд. В сельской местности они обнаруживают кладбище с находящимися на нём «домами призраков», где, по местным верованиями, духи обретают покой. Имевших неосторожность осквернить святыню влюблённых начинает преследовать жестокая сверхъестественная сила. Она погружает героев в пучину леденящего ужаса потустороннего мира, из которого нет выхода.



    Страна: Таиланд, США
    Студия: Benetone Films, Benetone Hillin Entertainment, KNR Productions
    Продолжительность: 01:35:47
    Перевод: профессиональный (дублированный) лицензия «Cinema Prestige»

    Формат: MKV
    Качество: DVDRip-AVC
    Видео: MPEG-4 AVC, 720x438@1024x438 (2.35:1), 25.000 fps, 1452 Kbps, 0.184 bit/pixel
    Аудио 1: 48 kHz, AC3, 5.1, 384 Kbps | Лицензия | RUS |[img]http://lostpix.com/img/2016-04/26/ecarul7mj2gcrjkf30af8u4tk.gif[/img]
    Аудио 2: 48 kHz, AC3, 5.1, 384 Kbps | Оригинал |  ENG |[img]http://lostpix.com/img/2016-09/30/0icucyo5gq0qmwlibabcgmhiw.gif[/img]
    Субтитры: Русские

    Сохранены чаптеры как на DVD

    МИ
    General
    Unique ID                                : 228224721703120645027559348989929745680 (0xABB27B88E7939ACAB1F4E7D0BAE86D10)
    Complete name                            : D:Ghost.House.2017.DVDRip.AVC.ExKinoRay.mkv
    Format                                   : Matroska
    Format version                           : Version 2
    File size                                : 1.49 GiB
    Duration                                 : 1 h 35 min
    Overall bit rate                         : 2 220 kb/s
    Movie name                               : Дом призраков (2017) from ExKinoRay
    Encoded date                             : UTC 2018-07-10 19:20:44
    Writing application                      : mkvmerge v5.6.0 ("Kenya Kane") built on May 27 2012 16:44:04
    Writing library                          : libebml v1.2.3 + libmatroska v1.3.0

    Video
    ID                                       : 1
    Format                                   : AVC
    Format/Info                              : Advanced Video Codec
    Format profile                           : High@L4.1
    Format settings, CABAC                   : Yes
    Format settings, ReFrames                : 12 frames
    Codec ID                                 : V_MPEG4/ISO/AVC
    Duration                                 : 1 h 35 min
    Bit rate                                 : 1 452 kb/s
    Width                                    : 720 pixels
    Height                                   : 438 pixels
    Display aspect ratio                     : 2.35:1
    Frame rate mode                          : Constant
    Frame rate                               : 25.000 FPS
    Color space                              : YUV
    Chroma subsampling                       : 4:2:0
    Bit depth                                : 8 bits
    Scan type                                : Progressive
    Bits/(Pixel*Frame)                       : 0.184
    Stream size                              : 965 MiB (63%)
    Title                                    : Enigma
    Writing library                          : x264 core 152 r2851 ba24899
    Encoding settings                        : cabac=1 / ref=12 / deblock=1:-2:-2 / analyse=0x3:0x113 / me=umh / subme=10 / psy=1 / psy_rd=1.00:0.05 / mixed_ref=1 / me_range=32 / chroma_me=1 / trellis=2 / 8x8dct=1 / cqm=0 / deadzone=21,11 / fast_pskip=0 / chroma_qp_offset=-3 / threads=12 / lookahead_threads=3 / sliced_threads=0 / nr=0 / decimate=0 / interlaced=0 / bluray_compat=0 / constrained_intra=0 / bframes=12 / b_pyramid=2 / b_adapt=2 / b_bias=0 / direct=3 / weightb=1 / open_gop=0 / weightp=2 / keyint=250 / keyint_min=25 / scenecut=40 / intra_refresh=0 / rc=2pass / mbtree=0 / bitrate=1452 / ratetol=1.0 / qcomp=0.60 / qpmin=0 / qpmax=51 / qpstep=4 / cplxblur=20.0 / qblur=0.5 / ip_ratio=1.40 / pb_ratio=1.30 / aq=1:1.00
    Default                                  : Yes
    Forced                                   : No
    Color range                              : Limited
    Color primaries                          : BT.601 PAL
    Transfer characteristics                 : BT.470 System B, BT.470 System G
    Matrix coefficients                      : BT.601

    Audio #1
    ID                                       : 2
    Format                                   : AC-3
    Format/Info                              : Audio Coding 3
    Mode extension                           : CM (complete main)
    Format settings, Endianness              : Big
    Codec ID                                 : A_AC3
    Duration                                 : 1 h 35 min
    Bit rate mode                            : Constant
    Bit rate                                 : 384 kb/s
    Channel(s)                               : 6 channels
    Channel positions                        : Front: L C R, Side: L R, LFE
    Sampling rate                            : 48.0 kHz
    Frame rate                               : 31.250 FPS (1536 spf)
    Compression mode                         : Lossy
    Stream size                              : 263 MiB (17%)
    Title                                    : Dub
    Language                                 : Russian
    Default                                  : Yes
    Forced                                   : No

    Audio #2
    ID                                       : 3
    Format                                   : AC-3
    Format/Info                              : Audio Coding 3
    Mode extension                           : CM (complete main)
    Format settings, Endianness              : Big
    Codec ID                                 : A_AC3
    Duration                                 : 1 h 35 min
    Bit rate mode                            : Constant
    Bit rate                                 : 384 kb/s
    Channel(s)                               : 6 channels
    Channel positions                        : Front: L C R, Side: L R, LFE
    Sampling rate                            : 48.0 kHz
    Frame rate                               : 31.250 FPS (1536 spf)
    Compression mode                         : Lossy
    Stream size                              : 263 MiB (17%)
    Language                                 : English
    Default                                  : No
    Forced                                   : No

    Text
    ID                                       : 4
    Format                                   : UTF-8
    Codec ID                                 : S_TEXT/UTF8
    Codec ID/Info                            : UTF-8 Plain Text
    Language                                 : Russian
    Default                                  : No
    Forced                                   : No

    Menu
    00:00:00.000                             : :Chapter 01
    00:02:25.920                             : :Chapter 02
    00:07:36.000                             : :Chapter 03
    00:16:29.760                             : :Chapter 04
    00:23:07.200                             : :Chapter 05
    00:28:58.080                             : :Chapter 06
    00:37:08.640                             : :Chapter 07
    00:42:17.760                             : :Chapter 08
    00:49:39.840                             : :Chapter 09
    00:54:49.440                             : :Chapter 10
    01:01:21.120                             : :Chapter 11
    01:10:17.760                             : :Chapter 12
    01:16:49.920                             : :Chapter 13
    01:20:30.720                             : :Chapter 14
    01:29:19.200                             : :Chapter 15
    01:30:48.480                             : :Chapter 16



    [img]http://lostpix.com/img/2018-07/11/epu9kgudhs4cwu7z2x67dtnol.png[/img][img]http://lostpix.com/img/2018-07/11/h0dzxi4c43namqi5jkq5hgw6b.png[/img][img]http://lostpix.com/img/2018-07/11/t0v7n7dn03aiwdboqb17jugub.png[/img][img]http://lostpix.com/img/2018-07/11/b3hxigw4c01gn19n9uqa08bz5.png[/img]
    Еще похожие »

    Как скачать?
    1. Качаем UTorrent версии 2.0 и выше отсюда
    2. После установки, жмем на ссылку Скачать торрент.
    3. Открываем его через utorrent.
    4. Ждем пока подключатся участники.
    5. Качаем.


    Комментарии о Дом призраков / Ghost House | DVDRip-AVC
    Добавлять комментарии могут только зарегистрированные пользователи

    Зарегистрироваться или Войти


    Ближайшее в кино
    • Безумие Георга III дата выхода 20 ноября 2018Безумие Георга III
      Дата выхода: 20 ноября 2018
    • 7226|Догвилль|22 ноября 2018|200|300Догвилль
      Дата выхода: 22 ноября 2018
    • 1009784|Апгрейд|22 ноября 2018|200|300Апгрейд
      Дата выхода: 22 ноября 2018
    • 988782|Ральф против интернета|22 ноября 2018|200|300Ральф против интернета
      Дата выхода: 22 ноября 2018
    • 965901|Вдовы|22 ноября 2018|200|300Вдовы
      Дата выхода: 22 ноября 2018
    • 1011685|Нация убийц|22 ноября 2018|200|300Нация убийц
      Дата выхода: 22 ноября 2018
    • 891414|Жена|22 ноября 2018|200|300Жена
      Дата выхода: 22 ноября 2018
    • 934207|Мотылёк|22 ноября 2018|200|300Мотылёк
      Дата выхода: 22 ноября 2018
    • 1044912|Вечерняя школа|22 ноября 2018|200|300Вечерняя школа
      Дата выхода: 22 ноября 2018
    • 1036188|Быть Астрид Линдгрен|22 ноября 2018|200|300Быть Астрид Линдгрен
      Дата выхода: 22 ноября 2018
    • 1048852|Помешанный на времени|22 ноября 2018|200|300Помешанный на времени
      Дата выхода: 22 ноября 2018
    • 1049775|Подбросы|22 ноября 2018|200|300Подбросы
      Дата выхода: 22 ноября 2018
    • 1108741|Я — миллиардер|22 ноября 2018|200|300Я — миллиардер
      Дата выхода: 22 ноября 2018
    • 1118041|Три лица|22 ноября 2018|200|300Три лица
      Дата выхода: 22 ноября 2018
    • 1209190|МУЛЬТ в кино. Выпуск 85. Мамин праздник|24 ноября 2018|200|300МУЛЬТ в кино. Выпуск 85. Мамин праздник
      Дата выхода: 24 ноября 2018
    Вверх