• Игры для PS4
  • Игры для PS3
  • Игры для XBOX360
  • Игры для PC
  • Игры для PS2
  • Игры для PSP
  • Для телефонов
  • Музыка
  • Книги/Журналы
  • Обои
  •  
    Опрос
    Откуда Вы о нас узнали?
      0
    • От знакомых2,1,false,300,full
    • Из социальных сетей2,2,false,300,full
    • Из поисковых систем2,3,false,300,full
    • Другое2,4,false,300,full
    Статистика
    Загрузка...
    Аванпост / The Outpost [Сезон 01 | 01 серия из 10] | WEBRip
    Статус  Проверено
    В закладки
    Модератор: Max

    Аванпост / The Outpost [Сезон 01 | 01 серия из 10] | WEBRip [Сериалы 2018] скачать торрентом/torrent бесплатно

    Год выхода
    Категории
    Язык
    Закачал
    Max | 11 июля в 14ч 31м 20с
    Раздел
    Отзывов
    0
    Раздают: 4 Качают: 9 Скачали: 5 Размер: 1.09 GB
    Инфо о раздаче | Благодарности |
    0/5
    0
    0 5 0
    Поддержи нас — расскажи друзьям!
    Orbitum
    Новый интернет-браузер Быстрее загружает сайты Экономит интернет—трафик Меняет оформление страницы ВК Блокирует всю рекламу на сайтах Загружает торренты как

    µTorrent

    клиент
    Объеденяет все твои чаты из соц. сетей в один Проигрывает твою музыку не заходя во ВКонтакте
    Скачать и многое другое... Подробности на сайте производителя
    Информация о фильме
    Название: Аванпост
    Оригинальное название: The Outpost
    Год выпуска: 2018
    Жанр:  Фэнтези, приключения
    Режиссер: Джон Лойд, Курт Найт, Кайнен Гриффин
    В ролях: Джессика Грин, Джейк Стормоен, Эндрю Ховард, Имоджен Уотерхаус, Ананд Десаи-Барочиа, Робин Малкольм, Кристиан Нэрн

    О фильме:
    В центре 10-серийного приключенческого фэнтези молодая Талон — единственная выжившая представительница расы чёрной крови (Blackbloods). Поиски убийц её семьи приводят девушку в сторожевую крепость на самой границе цивилизованного мира. В пути Талон обнаруживает, что обладает мистической силой, которую ей предстоит научиться контролировать, чтобы спастись самой и защитить мир от диктатуры религиозных фанатиков.

    [img]https://u.myshows.me/r/57222.png[/img]

    Страна: США
    Студия: Arrowstorm Entertainment
    Продолжительность: 1 x ~ 00:42:00
    Перевод: Любительский многоголосый закадровый [ColdFilm]

    Файл
    Кодек: MPEG4
    Качество: WEBRip
    Видео: ~1463 Кбит/с, 720x400, 29.970 fps
    Аудио: Русский (MP3, 2 ch, 128 Кбит/с)

    [img]http://s020.radikal.ru/i712/1701/ad/1bb0bd9bc94a.gif[/img]



    MI
    General
    Unique ID                   : 187027249256867368478272962211834868419 (0x8CB4235265735700B9862AD88F3DB2C3)
    Complete name               : The.Outpost.S01E01.720p.ColdFilm.mkv
    Format                      : Matroska
    Format version              : Version 2
    File size                   : 1.09 GiB
    Duration                    : 42 min 57 s
    Overall bit rate            : 3 640 kb/s
    Encoded date                : UTC 2018-07-11 09:18:27 / UTC 2017-11-20 18:25:40
    Writing application         : mkvmerge v3.3.0 ("Language") built on Mar 24 2010 14:59:24
    Writing library             : libebml v0.8.0 + libmatroska v0.9.0 / Lavf54.63.104

    Video
    ID                          : 1
    Format                      : AVC
    Format/Info                 : Advanced Video Codec
    Format profile              : Main@L3.1
    Format settings             : CABAC / 1 Ref Frames
    Format settings, CABAC      : Yes
    Format settings, ReFrames   : 1 frame
    Codec ID                    : V_MPEG4/ISO/AVC
    Duration                    : 42 min 57 s
    Bit rate                    : 3 500 kb/s
    Width                       : 1 280 pixels
    Height                      : 720 pixels
    Display aspect ratio        : 16:9
    Frame rate mode             : Constant
    Frame rate                  : 25.000 FPS
    Color space                 : YUV
    Chroma subsampling          : 4:2:0
    Bit depth                   : 8 bits
    Scan type                   : Progressive
    Bits/(Pixel*Frame)          : 0.152
    Stream size                 : 1.01 GiB (93%)
    Writing library             : x264 core 129
    Default                     : No
    Forced                      : No

    Audio
    ID                          : 2
    Format                      : AC-3
    Format/Info                 : Audio Coding 3
    Codec ID                    : A_AC3
    Duration                    : 42 min 57 s
    Bit rate mode               : Constant
    Bit rate                    : 192 kb/s
    Channel(s)                  : 2 channels
    Channel positions           : Front: L R
    Sampling rate               : 48.0 kHz
    Frame rate                  : 31.250 FPS (1536 SPF)
    Bit depth                   : 16 bits
    Compression mode            : Lossy
    Stream size                 : 59.0 MiB (5%)
    Service kind                : Complete Main
    Default                     : Yes
    Forced                      : No

    Еще похожие »

    Как скачать?
    1. Качаем UTorrent версии 2.0 и выше отсюда
    2. После установки, жмем на ссылку Скачать торрент.
    3. Открываем его через utorrent.
    4. Ждем пока подключатся участники.
    5. Качаем.


    Комментарии о Аванпост / The Outpost [Сезон 01 | 01 серия из 10] | WEBRip
    Добавлять комментарии могут только зарегистрированные пользователи

    Зарегистрироваться или Войти


    Ближайшее в кино
    • Клуб миллиардеров дата выхода 19 июля 2018Клуб миллиардеров
      Дата выхода: 19 июля 2018
    • 848004|Паранормальное|19 июля 2018|200|300Паранормальное
      Дата выхода: 19 июля 2018
    • 993589|Килиманджара|19 июля 2018|200|300Килиманджара
      Дата выхода: 19 июля 2018
    • 1002560|Зои|19 июля 2018|200|300Зои
      Дата выхода: 19 июля 2018
    • 1025011|Офисный беспредел|19 июля 2018|200|300Офисный беспредел
      Дата выхода: 19 июля 2018
    • 1024435|Это чертово сердце|19 июля 2018|200|300Это чертово сердце
      Дата выхода: 19 июля 2018
    • 1169286|МУЛЬТ в кино. Выпуск №78. Наше лето!|21 июля 2018|200|300МУЛЬТ в кино. Выпуск №78. Наше лето!
      Дата выхода: 21 июля 2018
    • 926540|Миссия невыполнима: Последствия|26 июля 2018|200|300Миссия невыполнима: Последствия
      Дата выхода: 26 июля 2018
    • 992614|Обитатели|26 июля 2018|200|300Обитатели
      Дата выхода: 26 июля 2018
    • 854458|Белль и Себастьян: Приключения продолжаются|26 июля 2018|200|300Белль и Себастьян: Приключения продолжаются
      Дата выхода: 26 июля 2018
    • 1049478|Убежище дьявола|26 июля 2018|200|300Убежище дьявола
      Дата выхода: 26 июля 2018
    • 1008732|Мектуб, моя любовь|26 июля 2018|200|300Мектуб, моя любовь
      Дата выхода: 26 июля 2018
    • 1049447|Юные титаны, вперед!|26 июля 2018|200|300Юные титаны, вперед!
      Дата выхода: 26 июля 2018
    • 1067608|Свидетели|26 июля 2018|200|300Свидетели
      Дата выхода: 26 июля 2018
    • 933307|Опасная игра Слоун|2 августа 2018|200|300Опасная игра Слоун
      Дата выхода: 2 августа 2018
    Вверх