• Игры для PS4
  • Игры для PS3
  • Игры для XBOX360
  • Игры для PC
  • Игры для PS2
  • Игры для PSP
  • Для телефонов
  • Музыка
  • Книги/Журналы
  • Обои
  •  
    Опрос
    Откуда Вы о нас узнали?
      0
    • От знакомых2,1,false,300,full
    • Из социальных сетей2,2,false,300,full
    • Из поисковых систем2,3,false,300,full
    • Другое2,4,false,300,full
    Статистика
    Загрузка...
    Дом призраков / Ghost House | WEBDLRip-AVC
    Статус  Проверено
    В закладки
    Модератор: Max

    Дом призраков / Ghost House | WEBDLRip-AVC [Фильмы 2017] скачать торрентом/torrent бесплатно

    Год выхода
    Категории
    Язык
    Закачал
    Max | 11 июля в 15ч 31м 05с
    Раздел
    Отзывов
    0
    Раздают: 2 Качают: 0 Скачали: 8 Размер: 1.93 GB
    Инфо о раздаче | Благодарности |
    0/5
    0
    0 5 0
    Поддержи нас — расскажи друзьям!
    Orbitum
    Новый интернет-браузер Быстрее загружает сайты Экономит интернет—трафик Меняет оформление страницы ВК Блокирует всю рекламу на сайтах Загружает торренты как

    µTorrent

    клиент
    Объеденяет все твои чаты из соц. сетей в один Проигрывает твою музыку не заходя во ВКонтакте
    Скачать и многое другое... Подробности на сайте производителя
    Информация о фильме
    Название: Дом призраков
    Оригинальное название: Ghost House
    Год выхода: 2017
    Жанр: Ужасы, триллер
    Режиссер: Рич Рэгсдэйл
    В ролях: Скаут Тейлор-Комптон, Джеймс Хеберт, Марк Бун Джуниор, Расселл Джеффри Бэнкс, Рич Ли Грэй, Элана Крауш, Кевин Рэгсдэйл, Ян Вэньчу, Майкл С. Нью, Катрина Грэй

    О фильме:
    Молодая пара отправляется в путешествие в Таиланд. В сельской местности они обнаруживают кладбище с находящимися на нём «домами призраков», где, по местным верованиями, духи обретают покой. Имевших неосторожность осквернить святыню, влюблённых начинает преследовать жестокая сверхъестественная сила. Она погружает героев в пучину леденящего ужаса потустороннего мира, из которого нет выхода...



    Страна: Таиланд, США
    Студия: KNR Productions, Benetone Films, Benetone Hillin Entertainment
    Продолжительность: 01:39:54
    Перевод: профессиональный (дублированный) | Лицензия «Cinema Prestige»

    Файл
    Кодек: AVC
    Качество: WEB-DLRip-AVC
    Видео: MPEG-4 AVC, 1024x424, 2000 Kбит/с, 23.976 кадр/с
    Звук:
    Аудио #1: Русский ( АС3, 6ch, 384 Кбит/с, 48.0 KHz) Профессиональный (полное дублирование)«Cinema Prestige»
    Аудио #2: Английский ( AC3, 6ch, 384 Кбит/с, 48.0 KHz)
    Субтитры: русские, английские
    MediaInfo

    General
    Unique ID                      : 187514217347305052280297155034921769441 (0x8D11ECB3D0815C7F8572759DE29B19E1)
    Complete name                  : Ghost.House.2017.WEB-DLRip.mkv
    Format                         : Matroska
    Format version                 : Version 4 / Version 2
    File size                      : 1.93 GiB
    Duration                       : 1 h 39 min
    Overall bit rate               : 2 768 kb/s
    Encoded date                   : UTC 2018-07-11 09:12:00
    Writing application            : mkvmerge v7.1.0 ("Good Love") 64bit built on Jul 27 2014 13:06:55
    Writing library                : libebml v1.3.0 + libmatroska v1.4.1

    Video
    ID                             : 1
    Format                         : AVC
    Format/Info                    : Advanced Video Codec
    Format profile                 : High@L4.1
    Format settings                : CABAC / 10 Ref Frames
    Format settings, CABAC         : Yes
    Format settings, ReFrames      : 10 frames
    Codec ID                       : V_MPEG4/ISO/AVC
    Duration                       : 1 h 39 min
    Bit rate                       : 2 000 kb/s
    Width                          : 1 024 pixels
    Height                         : 424 pixels
    Display aspect ratio           : 2.40:1
    Frame rate mode                : Constant
    Frame rate                     : 23.976 FPS
    Color space                    : YUV
    Chroma subsampling             : 4:2:0
    Bit depth                      : 8 bits
    Scan type                      : Progressive
    Bits/(Pixel*Frame)             : 0.192
    Stream size                    : 1.39 GiB (72%)
    Writing library                : x264 core 148 r2638 7599210
    Encoding settings              : cabac=1 / ref=10 / deblock=1:-2:-2 / analyse=0x3:0x133 / me=umh / subme=11 / psy=1 / psy_rd=1.00:0.20 / mixed_ref=1 / me_range=48 / chroma_me=1 / trellis=2 / 8x8dct=1 / cqm=0 / deadzone=21,11 / fast_pskip=1 / chroma_qp_offset=-3 / threads=6 / lookahead_threads=1 / sliced_threads=0 / nr=0 / decimate=1 / interlaced=0 / bluray_compat=0 / constrained_intra=0 / bframes=10 / b_pyramid=2 / b_adapt=2 / b_bias=0 / direct=3 / weightb=1 / open_gop=0 / weightp=2 / keyint=250 / keyint_min=23 / scenecut=40 / intra_refresh=0 / rc_lookahead=60 / rc=2pass / mbtree=1 / bitrate=2000 / ratetol=1.0 / qcomp=0.60 / qpmin=0 / qpmax=69 / qpstep=4 / cplxblur=20.0 / qblur=0.5 / ip_ratio=1.40 / aq=1:1.00
    Language                       : English
    Default                        : Yes
    Forced                         : No

    Audio #1
    ID                             : 2
    Format                         : AC-3
    Format/Info                    : Audio Coding 3
    Codec ID                       : A_AC3
    Duration                       : 1 h 39 min
    Bit rate mode                  : Constant
    Bit rate                       : 384 kb/s
    Channel(s)                     : 6 channels
    Channel positions              : Front: L C R, Side: L R, LFE
    Sampling rate                  : 48.0 kHz
    Frame rate                     : 31.250 FPS (1536 SPF)
    Bit depth                      : 16 bits
    Compression mode               : Lossy
    Stream size                    : 274 MiB (14%)
    Language                       : Russian
    Service kind                   : Complete Main
    Default                        : Yes
    Forced                         : No

    Audio #2
    ID                             : 3
    Format                         : AC-3
    Format/Info                    : Audio Coding 3
    Codec ID                       : A_AC3
    Duration                       : 1 h 39 min
    Bit rate mode                  : Constant
    Bit rate                       : 384 kb/s
    Channel(s)                     : 6 channels
    Channel positions              : Front: L C R, Side: L R, LFE
    Sampling rate                  : 48.0 kHz
    Frame rate                     : 31.250 FPS (1536 SPF)
    Bit depth                      : 16 bits
    Compression mode               : Lossy
    Stream size                    : 274 MiB (14%)
    Language                       : English
    Service kind                   : Complete Main
    Default                        : No
    Forced                         : No

    Text #1
    ID                             : 4
    Format                         : UTF-8
    Codec ID                       : S_TEXT/UTF8
    Codec ID/Info                  : UTF-8 Plain Text
    Duration                       : 1 h 35 min
    Bit rate                       : 46 b/s
    Count of elements              : 808
    Stream size                    : 32.5 KiB (0%)
    Language                       : Russian
    Default                        : No
    Forced                         : No

    Text #2
    ID                             : 5
    Format                         : UTF-8
    Codec ID                       : S_TEXT/UTF8
    Codec ID/Info                  : UTF-8 Plain Text
    Duration                       : 1 h 32 min
    Bit rate                       : 32 b/s
    Count of elements              : 908
    Stream size                    : 21.9 KiB (0%)
    Language                       : English
    Default                        : No
    Forced                         : No

    Menu
    00:00:00.000                   : en:01
    00:06:02.070                   : en:02
    00:12:54.315                   : en:03
    00:18:40.285                   : en:04
    00:25:00.081                   : en:05
    00:32:24.817                   : en:06
    00:38:54.498                   : en:07
    00:44:10.773                   : en:08
    00:50:24.354                   : en:09
    00:57:15.056                   : en:10
    01:04:01.796                   : en:11
    01:09:29.248                   : en:12
    01:15:49.753                   : en:13
    01:22:47.796                   : en:14
    01:27:38.670                   : en:15
    01:34:44.345                   : en:16



    Еще похожие »

    Как скачать?
    1. Качаем UTorrent версии 2.0 и выше отсюда
    2. После установки, жмем на ссылку Скачать торрент.
    3. Открываем его через utorrent.
    4. Ждем пока подключатся участники.
    5. Качаем.


    Комментарии о Дом призраков / Ghost House | WEBDLRip-AVC
    Добавлять комментарии могут только зарегистрированные пользователи

    Зарегистрироваться или Войти


    Ближайшее в кино
    • Безумие Георга III дата выхода 20 ноября 2018Безумие Георга III
      Дата выхода: 20 ноября 2018
    • 7226|Догвилль|22 ноября 2018|200|300Догвилль
      Дата выхода: 22 ноября 2018
    • 1009784|Апгрейд|22 ноября 2018|200|300Апгрейд
      Дата выхода: 22 ноября 2018
    • 988782|Ральф против интернета|22 ноября 2018|200|300Ральф против интернета
      Дата выхода: 22 ноября 2018
    • 965901|Вдовы|22 ноября 2018|200|300Вдовы
      Дата выхода: 22 ноября 2018
    • 1011685|Нация убийц|22 ноября 2018|200|300Нация убийц
      Дата выхода: 22 ноября 2018
    • 891414|Жена|22 ноября 2018|200|300Жена
      Дата выхода: 22 ноября 2018
    • 934207|Мотылёк|22 ноября 2018|200|300Мотылёк
      Дата выхода: 22 ноября 2018
    • 1044912|Вечерняя школа|22 ноября 2018|200|300Вечерняя школа
      Дата выхода: 22 ноября 2018
    • 1036188|Быть Астрид Линдгрен|22 ноября 2018|200|300Быть Астрид Линдгрен
      Дата выхода: 22 ноября 2018
    • 1048852|Помешанный на времени|22 ноября 2018|200|300Помешанный на времени
      Дата выхода: 22 ноября 2018
    • 1049775|Подбросы|22 ноября 2018|200|300Подбросы
      Дата выхода: 22 ноября 2018
    • 1108741|Я — миллиардер|22 ноября 2018|200|300Я — миллиардер
      Дата выхода: 22 ноября 2018
    • 1118041|Три лица|22 ноября 2018|200|300Три лица
      Дата выхода: 22 ноября 2018
    • 1209190|МУЛЬТ в кино. Выпуск 85. Мамин праздник|24 ноября 2018|200|300МУЛЬТ в кино. Выпуск 85. Мамин праздник
      Дата выхода: 24 ноября 2018
    Вверх