• Игры для PS4
  • Игры для PS3
  • Игры для XBOX360
  • Игры для PC
  • Игры для PS2
  • Игры для PSP
  • Для телефонов
  • Музыка
  • Книги/Журналы
  • Обои
  •  
    Опрос
    Удобен ли сайт в использовании?
      0
    • Очень удобен, все понятно1,1,false,300,full
    • Удобен1,2,false,300,full
    • Средне1,3,false,300,full
    • Неудобен, трудно ориентироваться1,4,false,300,full
    • Совсем неудобен1,5,false,300,full
    Статистика
    Загрузка...
    Мир Триасового периода / Triassic World | WEBRip
    Статус  Проверено
    В закладки
    Модератор: Max

    Мир Триасового периода / Triassic World | WEBRip [Фильмы 2017] скачать торрентом/torrent бесплатно

    Год выхода
    Язык
    Закачал
    Max | 11 июля в 19ч 04м 15с
    Раздел
    Отзывов
    0
    Раздают: 50 Качают: 4 Скачали: 196 Размер: 1.31 GB
    Инфо о раздаче | Благодарности |
    0/5
    0
    0 5 0
    Поддержи нас — расскажи друзьям!
    Orbitum
    Новый интернет-браузер Быстрее загружает сайты Экономит интернет—трафик Меняет оформление страницы ВК Блокирует всю рекламу на сайтах Загружает торренты как

    µTorrent

    клиент
    Объеденяет все твои чаты из соц. сетей в один Проигрывает твою музыку не заходя во ВКонтакте
    Скачать и многое другое... Подробности на сайте производителя
    Информация о фильме
    Название: Мир Триасового периода
    Оригинальное название: Triassic World
    Год выхода: 2017
    Жанр: Ужасы, фантастика, боевик
    Режиссер: Дилан Вокс
    В ролях: Джоэль Берти, Шарон Дезире, Грег Фурман, Джозеф Майкл Харрис, Даррин Хичкок, Жермен Холлман, Полина Лоран, Дженнифер Левинсон, Корбин Майлз, Брендан Петриццо и другие
    О фильме:
    Секретная лаборатория посреди мегаполиса выращивает динозавров, чтобы использовать их органы для трансплантации людям. Для этого ящерам предварительно вводятся человеческие гормоны и протеины. Но всё идёт не так, когда инъекции начинают оказывать неожиданный побочный эффект.



    Страна: США, Asylum
    Продолжительность: 01:29:38
    Перевод: Любительский (двухголосый закадровый) | HiWay Grope

    Файл
    Кодек: XviD
    Качество: WEBRip
    Видео: 720x400, 23.976 fps, ~1693 kbps, 0.25 bit/pixel
    Звук:
    Аудио rus: AC3, 48 kHz, 6 ch, 384 Kbps
    Субтитры: отсутствуют

    Реклама: присутствует

    Семпл

    MediaInfo

    General
    Complete name               : D:Triassic.World.2017.WEBRip.HiWayGropeTriassic.World.2017.WEBRip.HiWayGrope.avi
    Format                      : AVI
    Format/Info                 : Audio Video Interleave
    File size                   : 1.31 GiB
    Duration                    : 1 h 29 min
    Overall bit rate            : 2 087 kb/s
    Writing application         : VirtualDubMod 1.5.10.3 (build 2550/release)
    Writing library             : VirtualDubMod build 2550/release

    Video
    ID                          : 0
    Format                      : MPEG-4 Visual
    Format profile              : Advanced Simple@L5
    Format settings             : BVOP1
    Format settings, BVOP       : 1
    Format settings, QPel       : No
    Format settings, GMC        : No warppoints
    Format settings, Matrix     : Default (MPEG)
    Codec ID                    : XVID
    Codec ID/Hint               : XviD
    Duration                    : 1 h 29 min
    Bit rate                    : 1 694 kb/s
    Width                       : 720 pixels
    Height                      : 400 pixels
    Display aspect ratio        : 16:9
    Frame rate                  : 23.976 (24000/1001) FPS
    Original frame rate         : 23.976 (23976/1000) FPS
    Color space                 : YUV
    Chroma subsampling          : 4:2:0
    Bit depth                   : 8 bits
    Scan type                   : Progressive
    Compression mode            : Lossy
    Bits/(Pixel*Frame)          : 0.245
    Stream size                 : 1.06 GiB (81%)
    Writing library             : XviD 73

    Audio
    ID                          : 1
    Format                      : AC-3
    Format/Info                 : Audio Coding 3
    Codec ID                    : 2000
    Duration                    : 1 h 29 min
    Bit rate mode               : Constant
    Bit rate                    : 384 kb/s
    Channel(s)                  : 6 channels
    Channel positions           : Front: L C R, Side: L R, LFE
    Sampling rate               : 48.0 kHz
    Frame rate                  : 31.250 FPS (1536 SPF)
    Bit depth                   : 16 bits
    Compression mode            : Lossy
    Stream size                 : 246 MiB (18%)
    Alignment                   : Split accross interleaves
    Interleave, duration        : 42  ms (1.00 video frame)
    Interleave, preload duratio : 500  ms
    Service kind                : Complete Main



    Еще похожие »

    Как скачать?
    1. Качаем UTorrent версии 2.0 и выше отсюда
    2. После установки, жмем на ссылку Скачать торрент.
    3. Открываем его через utorrent.
    4. Ждем пока подключатся участники.
    5. Качаем.


    Комментарии о Мир Триасового периода / Triassic World | WEBRip
    Добавлять комментарии могут только зарегистрированные пользователи

    Зарегистрироваться или Войти


    Ближайшее в кино
    • Профессионал дата выхода 27 сентября 2018Профессионал
      Дата выхода: 27 сентября 2018
    • 650699|Человек, который убил Дон Кихота|27 сентября 2018|200|300Человек, который убил Дон Кихота
      Дата выхода: 27 сентября 2018
    • 1045777|Непрощенный|27 сентября 2018|200|300Непрощенный
      Дата выхода: 27 сентября 2018
    • 939411|Мотылек|27 сентября 2018|200|300Мотылек
      Дата выхода: 27 сентября 2018
    • 652531|Тайна дома с часами|27 сентября 2018|200|300Тайна дома с часами
      Дата выхода: 27 сентября 2018
    • 970196|Поиск|27 сентября 2018|200|300Поиск
      Дата выхода: 27 сентября 2018
    • 429363|Игрушки для взрослых|27 сентября 2018|200|300Игрушки для взрослых
      Дата выхода: 27 сентября 2018
    • 1049653|Сердце мира|27 сентября 2018|200|300Сердце мира
      Дата выхода: 27 сентября 2018
    • 794309|Букшоп|27 сентября 2018|200|300Букшоп
      Дата выхода: 27 сентября 2018
    • 1015929|3 дня с Роми Шнайдер|27 сентября 2018|200|3003 дня с Роми Шнайдер
      Дата выхода: 27 сентября 2018
    • 947047|Похитители носков|27 сентября 2018|200|300Похитители носков
      Дата выхода: 27 сентября 2018
    • 1115748|Руби и Повелитель воды|27 сентября 2018|200|300Руби и Повелитель воды
      Дата выхода: 27 сентября 2018
    • 983306|Нуреев: Его сцена – весь мир|29 сентября 2018|200|300Нуреев: Его сцена – весь мир
      Дата выхода: 29 сентября 2018
    • 463634|Веном|4 октября 2018|200|300Веном
      Дата выхода: 4 октября 2018
    • 998805|На районе|4 октября 2018|200|300На районе
      Дата выхода: 4 октября 2018
    Вверх