• Игры для PS4
  • Игры для PS3
  • Игры для XBOX360
  • Игры для PC
  • Игры для PS2
  • Игры для PSP
  • Для телефонов
  • Музыка
  • Книги/Журналы
  • Обои
  •  
    Опрос
    Удобен ли сайт в использовании?
      0
    • Очень удобен, все понятно1,1,false,300,full
    • Удобен1,2,false,300,full
    • Средне1,3,false,300,full
    • Неудобен, трудно ориентироваться1,4,false,300,full
    • Совсем неудобен1,5,false,300,full
    Статистика
    Загрузка...
    Аванпост / The Outpost [Сезон 01 | 01 серия из 10] | WEBRip
    Статус  Проверено
    В закладки
    Модератор: Max

    Аванпост / The Outpost [Сезон 01 | 01 серия из 10] | WEBRip [Сериалы 2018] скачать торрентом/torrent бесплатно

    Год выхода
    Категории
    Язык
    Закачал
    Аноним | 11 июля в 21ч 06м 44с
    Раздел
    Отзывов
    0
    Раздают: 19 Качают: 0 Скачали: 239 Размер: 611.56 MB
    Инфо о раздаче | Благодарности |
    0/5
    0
    0 5 0
    Поддержи нас — расскажи друзьям!
    Orbitum
    Новый интернет-браузер Быстрее загружает сайты Экономит интернет—трафик Меняет оформление страницы ВК Блокирует всю рекламу на сайтах Загружает торренты как

    µTorrent

    клиент
    Объеденяет все твои чаты из соц. сетей в один Проигрывает твою музыку не заходя во ВКонтакте
    Скачать и многое другое... Подробности на сайте производителя
    Информация о фильме
    Название: Аванпост
    Оригинальное название: The Outpost
    Год выхода: 2018
    Жанр: фэнтези, приключения
    Режиссер: Джон Лойд, Курт Найт, Кайнен Гриффин
    В ролях: Джессика Грин, Джейк Стормоен, Эндрю Ховард, Имоджен Уотерхаус, Ананд Десаи-Барочиа, Робин Малкольм, Кристиан Нэрн и др.

    О фильме:
    В центре сюжета оказывается представительница расы Чернокровок — Тэлон. Она ищет убийц своей семьи, следы которых ведут в крепость, находящуюся на границе обитаемых земель. Во время путешествия девушка обнаруживает у себя сверхъестественные способности, которыми ей придется овладеть, чтобы спасти себя и защитить мир от фанатичного религиозного диктатора.



    Страна: США
    Продолжительность: ~ 44 мин. серия
    Перевод: Любительский (многоголосый закадровый) | OMSKBIRD

    Файл
    Кодек: Xvid
    Качество: WEBRip  
    Видео: AVI, 720x400 (16:9), 23.976 fps, ~ 1800 kbps
    Звук: Аудио rus: AC-3, 48 KHz, 2 ch, 192 kbps | OMSKBIRD records

    Семпл

    Присутствует реклама!

    Скриншоты

    [img]http://i3.imageban.ru/out/2018/07/11/3ba75a24f564a3c45f9c364a96a4628d.png[/img][img]http://i5.imageban.ru/out/2018/07/11/fccac7d99f9f112fcfd8e2384c904146.png[/img][img]http://i6.imageban.ru/out/2018/07/11/dcbc563d9589c5be63c797c52d762c23.png[/img][img]http://i3.imageban.ru/out/2018/07/11/3469601de014f28ef2cf017cde8a1502.png[/img]



    Mediainfo
    General
    Complete name               : H:Мои ДокументыВидеоРАЗДАЧИАУТПОСТThe Outpost S01 WEBRip (OMSKBIRD)The Outpost S01E01 WEBRip (OMSKBIRD).avi
    Format                      : AVI
    Format/Info                 : Audio Video Interleave
    File size                   : 612 MiB
    Duration                    : 43 min 6 s
    Overall bit rate            : 1 983 kb/s
    Writing application         : VirtualDubMod 1.5.10.3 | www.virtualdub-fr.org || (build 2550/release)
    Writing library             : VirtualDubMod build 2550/release

    Video
    ID                          : 0
    Format                      : MPEG-4 Visual
    Format profile              : Advanced Simple@L5
    Format settings, BVOP       : 1
    Format settings, QPel       : No
    Format settings, GMC        : No warppoints
    Format settings, Matrix     : Default (H.263)
    Codec ID                    : XVID
    Codec ID/Hint               : XviD
    Duration                    : 43 min 6 s
    Bit rate                    : 1 782 kb/s
    Width                       : 720 pixels
    Height                      : 400 pixels
    Display aspect ratio        : 16:9
    Frame rate                  : 23.976 (24000/1001) FPS
    Color space                 : YUV
    Chroma subsampling          : 4:2:0
    Bit depth                   : 8 bits
    Scan type                   : Progressive
    Compression mode            : Lossy
    Bits/(Pixel*Frame)          : 0.258
    Stream size                 : 549 MiB (90%)
    Writing library             : XviD 67

    Audio
    ID                          : 1
    Format                      : AC-3
    Format/Info                 : Audio Coding 3
    Format settings, Endianness : Big
    Codec ID                    : 2000
    Duration                    : 43 min 6 s
    Bit rate mode               : Constant
    Bit rate                    : 192 kb/s
    Channel(s)                  : 2 channels
    Channel positions           : Front: L R
    Sampling rate               : 48.0 kHz
    Frame rate                  : 31.250 FPS (1536 SPF)
    Bit depth                   : 16 bits
    Compression mode            : Lossy
    Stream size                 : 59.2 MiB (10%)
    Alignment                   : Split accross interleaves
    Interleave, duration        : 42  ms (1.00 video frame)
    Interleave, preload duratio : 500  ms
    Service kind                : Complete Main

    Еще похожие »

    Как скачать?
    1. Качаем UTorrent версии 2.0 и выше отсюда
    2. После установки, жмем на ссылку Скачать торрент.
    3. Открываем его через utorrent.
    4. Ждем пока подключатся участники.
    5. Качаем.


    Комментарии о Аванпост / The Outpost [Сезон 01 | 01 серия из 10] | WEBRip
    Добавлять комментарии могут только зарегистрированные пользователи

    Зарегистрироваться или Войти


    Ближайшее в кино
    • Клуб миллиардеров дата выхода 19 июля 2018Клуб миллиардеров
      Дата выхода: 19 июля 2018
    • 848004|Паранормальное|19 июля 2018|200|300Паранормальное
      Дата выхода: 19 июля 2018
    • 993589|Килиманджара|19 июля 2018|200|300Килиманджара
      Дата выхода: 19 июля 2018
    • 1002560|Зои|19 июля 2018|200|300Зои
      Дата выхода: 19 июля 2018
    • 1025011|Офисный беспредел|19 июля 2018|200|300Офисный беспредел
      Дата выхода: 19 июля 2018
    • 1024435|Это чертово сердце|19 июля 2018|200|300Это чертово сердце
      Дата выхода: 19 июля 2018
    • 1169286|МУЛЬТ в кино. Выпуск №78. Наше лето!|21 июля 2018|200|300МУЛЬТ в кино. Выпуск №78. Наше лето!
      Дата выхода: 21 июля 2018
    • 926540|Миссия невыполнима: Последствия|26 июля 2018|200|300Миссия невыполнима: Последствия
      Дата выхода: 26 июля 2018
    • 992614|Обитатели|26 июля 2018|200|300Обитатели
      Дата выхода: 26 июля 2018
    • 854458|Белль и Себастьян: Приключения продолжаются|26 июля 2018|200|300Белль и Себастьян: Приключения продолжаются
      Дата выхода: 26 июля 2018
    • 1049478|Убежище дьявола|26 июля 2018|200|300Убежище дьявола
      Дата выхода: 26 июля 2018
    • 1008732|Мектуб, моя любовь|26 июля 2018|200|300Мектуб, моя любовь
      Дата выхода: 26 июля 2018
    • 1049447|Юные титаны, вперед!|26 июля 2018|200|300Юные титаны, вперед!
      Дата выхода: 26 июля 2018
    • 1067608|Свидетели|26 июля 2018|200|300Свидетели
      Дата выхода: 26 июля 2018
    • 933307|Опасная игра Слоун|2 августа 2018|200|300Опасная игра Слоун
      Дата выхода: 2 августа 2018
    Вверх