• Игры для PS4
  • Игры для PS3
  • Игры для XBOX360
  • Игры для PC
  • Игры для PS2
  • Игры для PSP
  • Для телефонов
  • Музыка
  • Книги/Журналы
  • Обои
  •  
    Опрос
    Откуда Вы о нас узнали?
      0
    • От знакомых2,1,false,300,full
    • Из социальных сетей2,2,false,300,full
    • Из поисковых систем2,3,false,300,full
    • Другое2,4,false,300,full
    Статистика
    Загрузка...
    Аванпост / The Outpost [Сезон 01 | 01 серия из 10] | WEBRip 720p
    Статус  Проверено
    В закладки
    Модератор: Max

    Аванпост / The Outpost [Сезон 01 | 01 серия из 10] | WEBRip 720p [Сериалы 2018] скачать торрентом/torrent бесплатно

    Год выхода
    Категории
    Язык
    Закачал
    Аноним | 11 июля в 21ч 24м 00с
    Раздел
    Отзывов
    0
    Раздают: 6 Качают: 4 Скачали: 11 Размер: 971.02 MB
    Инфо о раздаче | Благодарности |
    0/5
    0
    0 5 0
    Поддержи нас — расскажи друзьям!
    Orbitum
    Новый интернет-браузер Быстрее загружает сайты Экономит интернет—трафик Меняет оформление страницы ВК Блокирует всю рекламу на сайтах Загружает торренты как

    µTorrent

    клиент
    Объеденяет все твои чаты из соц. сетей в один Проигрывает твою музыку не заходя во ВКонтакте
    Скачать и многое другое... Подробности на сайте производителя
    Информация о фильме
    Название: Аванпост
    Оригинальное название: The Outpost
    Год выхода: 2018
    Жанр: фэнтези, приключения
    Режиссер: Джон Лойд, Курт Найт, Кайнен Гриффин
    В ролях: Джессика Грин, Джейк Стормоен, Эндрю Ховард, Имоджен Уотерхаус, Ананд Десаи-Барочиа, Робин Малкольм, Кристиан Нэрн и др.

    О фильме:
    В центре сюжета оказывается представительница расы Чернокровок — Тэлон. Она ищет убийц своей семьи, следы которых ведут в крепость, находящуюся на границе обитаемых земель. Во время путешествия девушка обнаруживает у себя сверхъестественные способности, которыми ей придется овладеть, чтобы спасти себя и защитить мир от фанатичного религиозного диктатора.



    Страна: США
    Продолжительность: ~ 44 мин. серия
    Перевод: Любительский (многоголосый закадровый) | OMSKBIRD

    Файл
    Кодек: MPEG-4 AVC
    Качество: WEBRip 720p
    Видео: AVC, 1280x720 (16:9), 23.976 fps, ~ 3000 kbps
    Звук: Аудио rus: AC-3, 48 KHz, 2 ch, 192 kbps | OMSKBIRD records

    Семпл

    Присутствует реклама!

    Скриншоты

    [img]http://i6.imageban.ru/out/2018/07/11/a9a249f0096f98dd73f197562992b501.png[/img][img]http://i6.imageban.ru/out/2018/07/11/f1489183fead0a71e6955bfb612f544d.png[/img][img]http://i3.imageban.ru/out/2018/07/11/63e3124ea11fe9d0529270e023898f15.png[/img][img]http://i6.imageban.ru/out/2018/07/11/5e6cc844928f9a4890ea26d556355b5c.png[/img]



    Mediainfo

    General
    Unique ID                   : 235571598798275324421554040009165758252 (0xB139708AC2057600BB6771A29EA1DF2C)
    Complete name               : H:Мои ДокументыВидеоРАЗДАЧИАУТПОСТThe Outpost S01 WEBRip 720p (OMSKBIRD)The Outpost S01E01 WEBRip 720p (OMSKBIRD).mkv
    Format                      : Matroska
    Format version              : Version 2
    File size                   : 971 MiB
    Duration                    : 43 min 6 s
    Overall bit rate            : 3 149 kb/s
    Encoded date                : UTC 2018-07-11 17:26:22
    Writing application         : mkvmerge v4.0.0 ("The Stars were mine") сборка от Jun  6 2010 16:18:42
    Writing library             : libebml v1.0.0 + libmatroska v1.0.0

    Video
    ID                          : 1
    Format                      : AVC
    Format/Info                 : Advanced Video Codec
    Format profile              : Main@L4.1
    Format settings, CABAC      : Yes
    Format settings, RefFrames  : 3 frames
    Codec ID                    : V_MPEG4/ISO/AVC
    Duration                    : 43 min 6 s
    Bit rate                    : 2 894 kb/s
    Width                       : 1 280 pixels
    Height                      : 720 pixels
    Display aspect ratio        : 16:9
    Frame rate mode             : Constant
    Frame rate                  : 23.976 (24000/1001) FPS
    Standard                    : NTSC
    Color space                 : YUV
    Chroma subsampling          : 4:2:0
    Bit depth                   : 8 bits
    Scan type                   : Progressive
    Bits/(Pixel*Frame)          : 0.131
    Stream size                 : 892 MiB (92%)
    Language                    : English
    Default                     : Yes
    Forced                      : No
    Color range                 : Limited
    Color primaries             : BT.709
    Transfer characteristics    : BT.709
    Matrix coefficients         : BT.709

    Audio
    ID                          : 2
    Format                      : AC-3
    Format/Info                 : Audio Coding 3
    Format settings, Endianness : Big
    Codec ID                    : A_AC3
    Duration                    : 43 min 6 s
    Bit rate mode               : Constant
    Bit rate                    : 192 kb/s
    Channel(s)                  : 2 channels
    Channel positions           : Front: L R
    Sampling rate               : 48.0 kHz
    Frame rate                  : 31.250 FPS (1536 SPF)
    Bit depth                   : 16 bits
    Compression mode            : Lossy
    Stream size                 : 59.2 MiB (6%)
    Service kind                : Complete Main
    Default                     : Yes
    Forced                      : No


    Еще похожие »

    Как скачать?
    1. Качаем UTorrent версии 2.0 и выше отсюда
    2. После установки, жмем на ссылку Скачать торрент.
    3. Открываем его через utorrent.
    4. Ждем пока подключатся участники.
    5. Качаем.


    Комментарии о Аванпост / The Outpost [Сезон 01 | 01 серия из 10] | WEBRip 720p
    Добавлять комментарии могут только зарегистрированные пользователи

    Зарегистрироваться или Войти


    Ближайшее в кино
    • Клуб миллиардеров дата выхода 19 июля 2018Клуб миллиардеров
      Дата выхода: 19 июля 2018
    • 848004|Паранормальное|19 июля 2018|200|300Паранормальное
      Дата выхода: 19 июля 2018
    • 993589|Килиманджара|19 июля 2018|200|300Килиманджара
      Дата выхода: 19 июля 2018
    • 1002560|Зои|19 июля 2018|200|300Зои
      Дата выхода: 19 июля 2018
    • 1025011|Офисный беспредел|19 июля 2018|200|300Офисный беспредел
      Дата выхода: 19 июля 2018
    • 1024435|Это чертово сердце|19 июля 2018|200|300Это чертово сердце
      Дата выхода: 19 июля 2018
    • 1169286|МУЛЬТ в кино. Выпуск №78. Наше лето!|21 июля 2018|200|300МУЛЬТ в кино. Выпуск №78. Наше лето!
      Дата выхода: 21 июля 2018
    • 926540|Миссия невыполнима: Последствия|26 июля 2018|200|300Миссия невыполнима: Последствия
      Дата выхода: 26 июля 2018
    • 992614|Обитатели|26 июля 2018|200|300Обитатели
      Дата выхода: 26 июля 2018
    • 854458|Белль и Себастьян: Приключения продолжаются|26 июля 2018|200|300Белль и Себастьян: Приключения продолжаются
      Дата выхода: 26 июля 2018
    • 1049478|Убежище дьявола|26 июля 2018|200|300Убежище дьявола
      Дата выхода: 26 июля 2018
    • 1008732|Мектуб, моя любовь|26 июля 2018|200|300Мектуб, моя любовь
      Дата выхода: 26 июля 2018
    • 1049447|Юные титаны, вперед!|26 июля 2018|200|300Юные титаны, вперед!
      Дата выхода: 26 июля 2018
    • 1067608|Свидетели|26 июля 2018|200|300Свидетели
      Дата выхода: 26 июля 2018
    • 933307|Опасная игра Слоун|2 августа 2018|200|300Опасная игра Слоун
      Дата выхода: 2 августа 2018
    Вверх