• Игры для PS4
  • Игры для PS3
  • Игры для XBOX360
  • Игры для PC
  • Игры для PS2
  • Игры для PSP
  • Для телефонов
  • Музыка
  • Книги / Журналы
  • Обои
  • Опрос
    Удобен ли сайт в использовании?
      0
    • Очень удобен, все понятно1,1,false,300,full
    • Удобен1,2,false,300,full
    • Средне1,3,false,300,full
    • Неудобен, трудно ориентироваться1,4,false,300,full
    • Совсем неудобен1,5,false,300,full
    Статистика
    Всего онлайн -
    Гостей -
    Пользователей -
    Короли трекера
    
    Благодарности () Закрыть
    Быстрее загружает сайты Экономит интернет—трафик Меняет оформление страницы ВК Блокирует всю рекламу на сайтах Загружает торренты как µTorrent клиент Объеденяет все твои чаты из соц. сетей в один Проигрывает твою музыку не заходя во ВКонтакте
    Новый интернет-браузер
    Оrbitum
    Скачать
    и многое другое... Подробности на сайте производителя
    Информация о фильме
    Название: От этого песок становится красным
    Оригинальное название: It Stains the Sands Red
    Год выхода: 2016
    Жанр: Ужасы, триллер, драма
    Режиссер: Колин Миниха
    В ролях:   Бриттани Аллен, Хуан Ридингер, Мервин Мондесер, Кристофер Хиггинс, Эндрю Сапэнз, Майкл Филиппович, Нико Дэвид, Дилан Плэйфейр, Стив Джадкинс
    О фильме:  Начало зомби-апокалипсиса, люди бегут из Лас-Вегаса, в их числе стриптизерша Молли и ее парень Ник. В нескольких десятках миль от города есть маленький аэродром, где собираются друзья Ника, чтобы рвануть на самолете в Мексику. По пути машина застревает в песке, а вскоре парочку догоняет одинокий зомби, съедающий Ника. Теперь у Молли остался только один шанс выжить – пересечь на своих двоих пустыню. И желательно поторапливаться – тот самый зомби твердо вознамерился закончить начатое.

    Страна: США
    Студия: Digital Interference Productions, Grasswood Media
    Продолжительность: 01:28:56
    Перевод:   Профессиональный многоголосый (СВ Студия)
    Файл
    Кодек: MPEG-2
    Качество: DVD-9
    Видео: MPEG2, PAL  16:9 (720x576@1024x576) VBR, 25,000 кадров/сек, 7664 Кбит/сек
    Звук:   Русский DD 5.1 (384 Kbps), Английский / Немецкий DD 5.1 (448 Kbps)
    Субтитры: Немецкие

    [img]http://imdb.snick.ru/ratefor/02/tt5735280.png[/img][img]https://rating.kinopoisk.ru/987326.gif[/img]



    DVDInfo

    Title:
    Size: 6.72 Gb ( 7 043 680 KBytes ) - DVD-9
    Enabled regions: 1, 2, 3, 4, 5, 6, 7, 8

    VTS_01 :
    Play Length: 00:00:16+00:00:07
    Video: PAL 16:9 (720x576) VBR, Auto Pan&Scan
    Audio:
    Not specified (Dolby AC3, 6 ch)

    VTS_02 :
    Play Length: 00:01:50
    Video: PAL 16:9 (720x576) VBR, Auto Pan&Scan
    Audio:
    Deutsch (Dolby AC3, 6 ch)

    VTS_03 :
    Play Length: 00:02:40
    Video: PAL 16:9 (720x576) VBR, Auto Pan&Scan
    Audio:
    Deutsch (Dolby AC3, 6 ch)

    VTS_04 :
    Play Length: 00:02:01
    Video: PAL 16:9 (720x576) VBR, Auto Pan&Scan
    Audio:
    Deutsch (Dolby AC3, 6 ch)

    VTS_05 :
    Play Length: 00:10:11
    Video: PAL 16:9 (720x576) VBR, Auto Pan&Scan
    Audio:
    English (Dolby AC3, 2 ch)

    VTS_06 :
    Play Length: 00:03:26
    Video: PAL 16:9 (720x576) VBR, Auto Pan&Scan
    Audio:
    English (Dolby AC3, 2 ch)

    VTS_07 :
    Play Length: 00:01:52
    Video: PAL 16:9 (720x576) VBR, Auto Pan&Scan
    Audio:
    Deutsch (Dolby AC3, 2 ch)

    VTS_08 :
    Play Length: 01:28:56
    Video: PAL 16:9 (720x576) VBR, Auto Pan&Scan
    Audio:
    Deutsch (Dolby AC3, 6 ch)
    English (Dolby AC3, 6 ch)
    Russian (Dolby AC3, 6 ch)
    Subtitles:
    Deutsch

    Menu Video:
    PAL 16:9 (720x576) VBR
    Auto Pan&Scan
    Menu Audio:
    Not specified (Dolby AC3, 2 ch)
    Menu Subtitles:
    Not specified
    Menu Deutsch Language Unit :
    Root Menu
    Audio Menu
    Chapter (PTT) Menu

    Свернуть


    MediaInfo


    Общее
    Полное имя                               : G:ААА2ОТ ЭТОГО ПЕСОК СТАНОВИТСЯ КРАСНЫМVIDEO_TSVTS_08_1.VOB
    Формат                                   : MPEG-PS
    Размер файла                             : 1024 Мбайт
    Продолжительность                        : 15 м.
    Режим общего битрейта                    : Переменный
    Общий поток                              : 9125 Кбит/сек

    Видео
    Идентификатор                            : 224 (0xE0)
    Формат                                   : MPEG Video
    Версия формата                           : Version 2
    Профиль формата                          : Main@Main
    Параметр BVOP формата                    : Да
    Параметр матрицы формата                 : Выборочная
    Параметр GOP формата                     : Variable
    Продолжительность                        : 15 м.
    Вид битрейта                             : Переменный
    Битрейт                                  : 7664 Кбит/сек
    Максимальный битрейт                     : 9800 Кбит/сек
    Ширина                                   : 720 пикселей
    Высота                                   : 576 пикселей
    Соотношение сторон                       : 16:9
    Частота кадров                           : 25,000 кадров/сек
    Стандарт вещания                         : PAL
    Цветовое пространство                    : YUV
    Субдискретизация насыщенности            : 4:2:0
    Битовая глубина                          : 8 бит
    Тип развёртки                            : Прогрессивная
    Порядок развёртки                        : Верхнее поле первое
    Метод сжатия                             : С потерями
    Бит/(Пиксели*Кадры)                      : 0.739
    TimeCode_FirstFrame                      : 01:00:01:09
    TimeCode_Source                          : Group of pictures header
    Размер потока                            : 860 Мбайт (84%)

    Аудио #1
    Идентификатор                            : 189 (0xBD)-128 (0x80)
    Формат                                   : AC-3
    Формат/Информация                        : Audio Coding 3
    Расширение режима                        : CM (complete main)
    Параметр Endianness формата              : Big
    Режим смешивания                         : DVD-Video
    Продолжительность                        : 15 м.
    Вид битрейта                             : Постоянный
    Битрейт                                  : 448 Кбит/сек
    Каналы                                   : 6 каналов
    Расположение каналов                     : Front: L C R, Side: L R, LFE
    Частота                                  : 48,0 КГц
    Битовая глубина                          : 16 бит
    Метод сжатия                             : С потерями
    Размер потока                            : 50,3 Мбайт (5%)

    Аудио #2
    Идентификатор                            : 189 (0xBD)-129 (0x81)
    Формат                                   : AC-3
    Формат/Информация                        : Audio Coding 3
    Расширение режима                        : CM (complete main)
    Параметр Endianness формата              : Big
    Режим смешивания                         : DVD-Video
    Продолжительность                        : 15 м.
    Вид битрейта                             : Постоянный
    Битрейт                                  : 448 Кбит/сек
    Каналы                                   : 6 каналов
    Расположение каналов                     : Front: L C R, Side: L R, LFE
    Частота                                  : 48,0 КГц
    Битовая глубина                          : 16 бит
    Метод сжатия                             : С потерями
    Размер потока                            : 50,3 Мбайт (5%)

    Аудио #3
    Идентификатор                            : 189 (0xBD)-130 (0x82)
    Формат                                   : AC-3
    Формат/Информация                        : Audio Coding 3
    Расширение режима                        : CM (complete main)
    Параметр Endianness формата              : Big
    Режим смешивания                         : DVD-Video
    Продолжительность                        : 15 м.
    Вид битрейта                             : Постоянный
    Битрейт                                  : 384 Кбит/сек
    Каналы                                   : 6 каналов
    Расположение каналов                     : Front: L C R, Side: L R, LFE
    Частота                                  : 48,0 КГц
    Битовая глубина                          : 16 бит
    Метод сжатия                             : С потерями
    Размер потока                            : 43,1 Мбайт (4%)

    Меню

    Свернуть


    Инструкция по скачиванию
     1  Качаем uTorrent версии 2.0 и выше
     2  После установки, жмем выше под постером на ссылку Скачать [MediaGet] или Скачать .torrent
     3  Открываем скачанный файл через соответствующий клиент: MediaGet или uTorrent
     4  Ждем пока подключатся участники
     5  Качаем
    Комментарии о  От этого песок становится красным / It Stains the Sands Red | DVD-9 
    Ближайшее в кино
    Вверх