• Игры для PS4
  • Игры для PS3
  • Игры для XBOX360
  • Игры для PC
  • Игры для PS2
  • Игры для PSP
  • Для телефонов
  • Музыка
  • Книги/Журналы
  • Обои
  •  
    Опрос
    Откуда Вы о нас узнали?
      0
    • От знакомых2,1,false,300,full
    • Из социальных сетей2,2,false,300,full
    • Из поисковых систем2,3,false,300,full
    • Другое2,4,false,300,full
    Статистика
    Загрузка...
    Короли трекера
    План / The Plan | WEBRip-AVC
    Статус  Проверено
    В закладки
    Модератор: Max

    План / The Plan | WEBRip-AVC [Фильмы 2017] скачать торрентом/torrent бесплатно

    Год выхода
    Категории
    Язык
    Закачал
    Max | 12 июля в 12ч 03м 59с
    Раздел
    Отзывов
    0
    Раздают: 8 Качают: 0 Скачали: 8 Размер: 1007.42 MB
    Инфо о раздаче | Благодарности |
    0/5
    0
    0 5 0
    Поддержи нас — расскажи друзьям!
    Orbitum
    Новый интернет-браузер Быстрее загружает сайты Экономит интернет—трафик Меняет оформление страницы ВК Блокирует всю рекламу на сайтах Загружает торренты как

    µTorrent

    клиент
    Объеденяет все твои чаты из соц. сетей в один Проигрывает твою музыку не заходя во ВКонтакте
    Скачать и многое другое... Подробности на сайте производителя
    Информация о фильме
    Название: План
    Оригинальное название: The Plan
    Год выхода: 2017
    Жанр: Ужасы
    Режиссер: Паоло Демэттейс
    В ролях: Джулио Мария Каваллини, Риккардо Ливермор, Дженнифер Мищати, Марчелло Спинетта и другие
    О фильме:
    Пятеро друзей по колледжу встречаются для поездки в старый замок в Пьемонте. Местные легенды гласят, что королева, жившая в этом замке, Джованна I, навлекла на регион засуху и голод. Прежде чем ее успели казнить местные жители, она записала проклятие в своем дневнике и покончила с жизнью. Молодых людей заинтриговала эта легенда, и они решили войти в закрытую комнату, где погибла Джованна, Там они находят ее дневник, высвобождая тем самым ее дух, жаждущий мести.



    Страна: Италия, P.I.T. Production
    Продолжительность: 01:23:49
    Перевод: Любительский (двухголосый закадровый) | HiWay Grope

    Файл
    Кодек: MPEG-4 AVC/x.264
    Качество: WEBRip
    Видео: 852x480, 25.000 fps, ~1455 kbps, 0.142 bit/pixel
    Звук:
    Аудио rus: AC3, 48 kHz, 2 ch, 192 Kbps
    Субтитры: отсутствуют

    Реклама: присутствует

    Семпл

    MediaInfo

    General
    Unique ID                                : 289499820882402885166507207070503427911 (0xD9CBA32C33A9CFB7F7DAE28EFCE45F47)
    Complete name                            : D:The.Plan.2017.WEBRip-AVC.HiWayGropeThe.Plan.2017.WEBRip-AVC.HiWayGrope.mkv
    Format                                   : Matroska
    Format version                           : Version 4 / Version 2
    File size                                : 1 007 MiB
    Duration                                 : 1h 23mn
    Overall bit rate                         : 1 680 Kbps
    Encoded date                             : UTC 2018-07-12 06:59:34
    Writing application                      : mkvmerge v21.0.0 ("Tardigrades Will Inherit The Earth") 64-bit
    Writing library                          : libebml v1.3.5 + libmatroska v1.4.8

    Video
    ID                                       : 1
    Format                                   : AVC
    Format/Info                              : Advanced Video Codec
    Format profile                           : Main@L4.1
    Format settings, CABAC                   : Yes
    Format settings, ReFrames                : 4 frames
    Codec ID                                 : V_MPEG4/ISO/AVC
    Duration                                 : 1h 23mn
    Bit rate                                 : 1 455 Kbps
    Width                                    : 852 pixels
    Height                                   : 480 pixels
    Display aspect ratio                     : 16:9
    Frame rate mode                          : Constant
    Frame rate                               : 25.000 fps
    Standard                                 : PAL
    Color space                              : YUV
    Chroma subsampling                       : 4:2:0
    Bit depth                                : 8 bits
    Scan type                                : Progressive
    Bits/(Pixel*Frame)                       : 0.142
    Stream size                              : 872 MiB (87%)
    Language                                 : English
    Default                                  : Yes
    Forced                                   : No
    Color range                              : Limited
    Color primaries                          : BT.601 NTSC
    Transfer characteristics                 : BT.601
    Matrix coefficients                      : BT.601

    Audio
    ID                                       : 2
    Format                                   : AC-3
    Format/Info                              : Audio Coding 3
    Mode extension                           : CM (complete main)
    Format settings, Endianness              : Big
    Codec ID                                 : A_AC3
    Duration                                 : 1h 23mn
    Bit rate mode                            : Constant
    Bit rate                                 : 192 Kbps
    Channel(s)                               : 2 channels
    Channel positions                        : Front: L R
    Sampling rate                            : 48.0 KHz
    Frame rate                               : 31.250 fps (1536 spf)
    Compression mode                         : Lossy
    Stream size                              : 115 MiB (11%)
    Language                                 : Russian
    Default                                  : Yes
    Forced                                   : No



    Еще похожие »

    Как скачать?
    1. Качаем UTorrent версии 2.0 и выше отсюда
    2. После установки, жмем на ссылку Скачать торрент.
    3. Открываем его через utorrent.
    4. Ждем пока подключатся участники.
    5. Качаем.


    Комментарии о План / The Plan | WEBRip-AVC
    Добавлять комментарии могут только зарегистрированные пользователи

    Зарегистрироваться или Войти


    Ближайшее в кино
    • Безумие Георга III дата выхода 20 ноября 2018Безумие Георга III
      Дата выхода: 20 ноября 2018
    • 7226|Догвилль|22 ноября 2018|200|300Догвилль
      Дата выхода: 22 ноября 2018
    • 1009784|Апгрейд|22 ноября 2018|200|300Апгрейд
      Дата выхода: 22 ноября 2018
    • 988782|Ральф против интернета|22 ноября 2018|200|300Ральф против интернета
      Дата выхода: 22 ноября 2018
    • 965901|Вдовы|22 ноября 2018|200|300Вдовы
      Дата выхода: 22 ноября 2018
    • 1011685|Нация убийц|22 ноября 2018|200|300Нация убийц
      Дата выхода: 22 ноября 2018
    • 891414|Жена|22 ноября 2018|200|300Жена
      Дата выхода: 22 ноября 2018
    • 934207|Мотылёк|22 ноября 2018|200|300Мотылёк
      Дата выхода: 22 ноября 2018
    • 1044912|Вечерняя школа|22 ноября 2018|200|300Вечерняя школа
      Дата выхода: 22 ноября 2018
    • 1036188|Быть Астрид Линдгрен|22 ноября 2018|200|300Быть Астрид Линдгрен
      Дата выхода: 22 ноября 2018
    • 1048852|Помешанный на времени|22 ноября 2018|200|300Помешанный на времени
      Дата выхода: 22 ноября 2018
    • 1049775|Подбросы|22 ноября 2018|200|300Подбросы
      Дата выхода: 22 ноября 2018
    • 1108741|Я — миллиардер|22 ноября 2018|200|300Я — миллиардер
      Дата выхода: 22 ноября 2018
    • 1118041|Три лица|22 ноября 2018|200|300Три лица
      Дата выхода: 22 ноября 2018
    • 1209190|МУЛЬТ в кино. Выпуск 85. Мамин праздник|24 ноября 2018|200|300МУЛЬТ в кино. Выпуск 85. Мамин праздник
      Дата выхода: 24 ноября 2018
    Вверх