• Игры для PS4
  • Игры для PS3
  • Игры для XBOX360
  • Игры для PC
  • Игры для PS2
  • Игры для PSP
  • Для телефонов
  • Музыка
  • Книги/Журналы
  • Обои
  •  
    Опрос
    Откуда Вы о нас узнали?
      0
    • От знакомых2,1,false,300,full
    • Из социальных сетей2,2,false,300,full
    • Из поисковых систем2,3,false,300,full
    • Другое2,4,false,300,full
    Статистика
    Загрузка...
    Дом Рэйвен / Raven's Home [Сезон 02 | 01-07 серии из 13] | HDTVRip
    Статус  Проверено
    В закладки
    Модератор: Max

    Дом Рэйвен / Raven's Home [Сезон 02 | 01-07 серии из 13] | HDTVRip [Сериалы 2018] скачать торрентом/torrent бесплатно

    Год выхода
    Категории
    Язык
    Закачал
    Max | 12 июля в 14ч 01м 57с
    Раздел
    Отзывов
    0
    Раздают: 0 Качают: 0 Скачали: 0 Размер: 2.07 GB
    Инфо о раздаче | Благодарности |
    0/5
    0
    0 5 0
    Поддержи нас — расскажи друзьям!
    Orbitum
    Новый интернет-браузер Быстрее загружает сайты Экономит интернет—трафик Меняет оформление страницы ВК Блокирует всю рекламу на сайтах Загружает торренты как

    µTorrent

    клиент
    Объеденяет все твои чаты из соц. сетей в один Проигрывает твою музыку не заходя во ВКонтакте
    Скачать и многое другое... Подробности на сайте производителя
    Информация о фильме
    Название: Дом Рэйвен
    Оригинальное название: Raven"s Home
    Год выпуска: 2018
    Жанр:  Комедия
    Режиссер: Эрик Дин Ситон
    В ролях: Иссак Райан Браун, Рэйвен, Аннелиза ван дер Пол, Бруно Амато, Скайлер Дэй, Александра Андервуд

    О фильме:
    Рэйвен и Челси - две разведенные одинокие матери, воспитывающие своих детей в доме полном веселья. Когда один из детей Рэйвен начинает видеть будущее, все переворачивается вверх дном.

    [img]https://u.myshows.me/r/53566.png[/img]

    Страна: США
    Страна: США
    Студия: Rough Draft Productions, Entertainment Force, It"s a Laugh Productions
    Продолжительность: 7 x ~ 00:44:00
    Перевод: Любительский многоголосый [ColdFilm]

    Файл
    Кодек: XviD
    Качество: HDTVRip
    Видео: 720x400, ~1500 Кбит/с, 29.970 fps
    Звук: 48 kHz,MP3 , 2/0 (L,R) ch, ~125 kbps

    [img]http://s020.radikal.ru/i712/1701/ad/1bb0bd9bc94a.gif[/img]



    MI
    General
    Complete name               : Ravens.Home.S02E01.400p.ColdFilm.avi
    Format                      : AVI
    Format/Info                 : Audio Video Interleave
    File size                   : 285 MiB
    Duration                    : 24 min 9 s
    Overall bit rate            : 1 648 kb/s
    Writing application         : Lavf57.71.100

    Video
    ID                          : 1
    Format                      : MPEG-4 Visual
    Format profile              : Simple@L1
    Format settings, BVOP       : No
    Format settings, QPel       : No
    Format settings, GMC        : No warppoints
    Format settings, Matrix     : Default (H.263)
    Codec ID                    : FMP4
    Duration                    : 24 min 8 s
    Bit rate                    : 1 506 kb/s
    Width                       : 720 pixels
    Height                      : 400 pixels
    Display aspect ratio        : 16:9
    Frame rate                  : 29.970 (30000/1001) FPS
    Color space                 : YUV
    Chroma subsampling          : 4:2:0
    Bit depth                   : 8 bits
    Scan type                   : Progressive
    Compression mode            : Lossy
    Bits/(Pixel*Frame)          : 0.175
    Stream size                 : 260 MiB (91%)
    Writing library             : Lavc57.89.100

    Audio
    ID                          : 0
    Format                      : MPEG Audio
    Format version              : Version 1
    Format profile              : Layer 3
    Format settings             : Joint stereo / MS Stereo
    Codec ID                    : 55
    Codec ID/Hint               : MP3
    Duration                    : 24 min 9 s
    Bit rate mode               : Constant
    Bit rate                    : 128 kb/s
    Channel(s)                  : 2 channels
    Sampling rate               : 48.0 kHz
    Compression mode            : Lossy
    Stream size                 : 22.1 MiB (8%)
    Alignment                   : Aligned on interleaves
    Interleave, duration        : 33  ms (1.00 video frame)



    [img]http://a.radikal.ru/a33/1801/c9/144696cc967a.png[/img]
    Еще похожие »

    Как скачать?
    1. Качаем UTorrent версии 2.0 и выше отсюда
    2. После установки, жмем на ссылку Скачать торрент.
    3. Открываем его через utorrent.
    4. Ждем пока подключатся участники.
    5. Качаем.


    Комментарии о Дом Рэйвен / Raven's Home [Сезон 02 | 01-07 серии из 13] | HDTVRip
    Добавлять комментарии могут только зарегистрированные пользователи

    Зарегистрироваться или Войти


    Ближайшее в кино
    • Клуб миллиардеров дата выхода 19 июля 2018Клуб миллиардеров
      Дата выхода: 19 июля 2018
    • 848004|Паранормальное|19 июля 2018|200|300Паранормальное
      Дата выхода: 19 июля 2018
    • 993589|Килиманджара|19 июля 2018|200|300Килиманджара
      Дата выхода: 19 июля 2018
    • 1002560|Зои|19 июля 2018|200|300Зои
      Дата выхода: 19 июля 2018
    • 1025011|Офисный беспредел|19 июля 2018|200|300Офисный беспредел
      Дата выхода: 19 июля 2018
    • 1024435|Это чертово сердце|19 июля 2018|200|300Это чертово сердце
      Дата выхода: 19 июля 2018
    • 1169286|МУЛЬТ в кино. Выпуск №78. Наше лето!|21 июля 2018|200|300МУЛЬТ в кино. Выпуск №78. Наше лето!
      Дата выхода: 21 июля 2018
    • 926540|Миссия невыполнима: Последствия|26 июля 2018|200|300Миссия невыполнима: Последствия
      Дата выхода: 26 июля 2018
    • 992614|Обитатели|26 июля 2018|200|300Обитатели
      Дата выхода: 26 июля 2018
    • 854458|Белль и Себастьян: Приключения продолжаются|26 июля 2018|200|300Белль и Себастьян: Приключения продолжаются
      Дата выхода: 26 июля 2018
    • 1049478|Убежище дьявола|26 июля 2018|200|300Убежище дьявола
      Дата выхода: 26 июля 2018
    • 1008732|Мектуб, моя любовь|26 июля 2018|200|300Мектуб, моя любовь
      Дата выхода: 26 июля 2018
    • 1049447|Юные титаны, вперед!|26 июля 2018|200|300Юные титаны, вперед!
      Дата выхода: 26 июля 2018
    • 1067608|Свидетели|26 июля 2018|200|300Свидетели
      Дата выхода: 26 июля 2018
    • 933307|Опасная игра Слоун|2 августа 2018|200|300Опасная игра Слоун
      Дата выхода: 2 августа 2018
    Вверх