• Игры для PS4
  • Игры для PS3
  • Игры для XBOX360
  • Игры для PC
  • Игры для PS2
  • Игры для PSP
  • Для телефонов
  • Музыка
  • Книги/Журналы
  • Обои
  •  
    Опрос
    Откуда Вы о нас узнали?
      0
    • От знакомых2,1,false,300,full
    • Из социальных сетей2,2,false,300,full
    • Из поисковых систем2,3,false,300,full
    • Другое2,4,false,300,full
    Статистика
    Загрузка...
    Мастера меча онлайн: Альтернативная «Призрачная пуля» / Sword Art Online: Gun Gale Online [Серии 01-12 из 12] | HDTVRip
    Статус  Проверено
    В закладки
    Модератор: Max

    Мастера меча онлайн: Альтернативная «Призрачная пуля» / Sword Art Online: Gun Gale Online [Серии 01-12 из 12] | HDTVRip [Сериалы 2018] скачать торрентом/torrent бесплатно

    Год выхода
    Категории
    Язык
    Закачал
    Аноним | 12 июля в 14ч 33м 40с
    Раздел
    Отзывов
    0
    Раздают: 7 Качают: 0 Скачали: 19 Размер: 3.44 GB
    Инфо о раздаче | Благодарности |
    0/5
    0
    0 5 0
    Поддержи нас — расскажи друзьям!
    Orbitum
    Новый интернет-браузер Быстрее загружает сайты Экономит интернет—трафик Меняет оформление страницы ВК Блокирует всю рекламу на сайтах Загружает торренты как

    µTorrent

    клиент
    Объеденяет все твои чаты из соц. сетей в один Проигрывает твою музыку не заходя во ВКонтакте
    Скачать и многое другое... Подробности на сайте производителя
    Страна: Япония
    Год выпуска: 2018
    Жанр:  приключения, триллер, фантастика
    Тип: TV
    Продолжительность: ТВ (12 эп.), 00:24:00
    Режиссер: Масаюки Сакой
    Студия: Studio 3Hz

    Описание:
    Виртуальная онлайн игра «Мастера Меча Онлайн» вызвала волну негодования и протестов после обнародования СМИ информации о том, что гибель персонажа внутри игры приводила к гибели человека в реальности. Этот скандал привёл практически к краху зарождавшейся индустрии виртуальных компьютерных игр. Однако появление пакета обновлений призванных полностью обезопасить пользователей от хакерских атак во время игры, привело к новому всплеску популярности данного вида развлечения. В результате этого всё новые и новые игры стали появляться с бешеной скоростью. Одна из таких игр нашла преданных фанатов, благодаря мрачному миру и битвами между игроками при помощи стрелковых орудий и мечей. И название данной сверхпопулярной онлайн игры - Призрачная пуля.

    Доп. информация:
    Релиз GSGroup
    [img]http://i053.radikal.ru/1604/64/a35e706ef334.gif[/img]

    Эта серия состоит из:
    #1  Sword Art Online - ТВ (25 эп.), адаптация ранобэ, 2012
    #2  Sword Art Online: Extra Edition - ТВ-спэшл, продолжение, 2013 (720)
    #3  Sword Art Online II - ТВ (>24 эп.), продолжение, 2014
    #4 Мастера меча онлайн (фильм) - п/ф, адаптация ранобэ, 2017
    #5 Мастера меча онлайн: Алисизация - ТВ, продолжение, 2018 осень-2018
    #6 Sword Art Online Alternative: Gun Gale Online - ТВ, адаптация ранобэ, 2018

    Качество: HDTVRip
    Тип релиза: Без хардсаба
    Формат видео: AVI
    Видео: XviD, 704x400, 1312 Kbps, 23.976 fps, 8 bits
    Аудио 1: AC-3, 192 Kbps, 2 channels, 48.0 KHz Язык Русский (в составе контейнера) ; Озвучка: Любительский одноголосый: Persona99
    Аудио 2: AC-3, 192 Kbps, 2 channels, 48.0 KHz Язык Японский ; Озвучка 2: оригинал
    Субтитры: внешние ass, srt Язык субтитров русский ; Перевод: Перевод, редакция: Aero Оформление: Nika_Elrik
    Подробные тех. данные

    General
    Complete name                            : Sword Art Online Alternative Gun Gale Online1-Sword Art Online ~Alternative Gun Gale Online~ [Persona99](XviD 704x400 AC3).rus.jap.avi
    Format                                   : AVI
    Format/Info                              : Audio Video Interleave
    File size                                : 294 MiB
    Duration                                 : 23mn 59s
    Overall bit rate                         : 1 710 Kbps
    Writing application                      : VirtualDubMod 1.5.10.2 (build 2540/release)
    Writing library                          : VirtualDubMod build 2540/release

    Video
    ID                                       : 0
    Format                                   : MPEG-4 Visual
    Format profile                           : Advanced Simple@L5
    Format settings, BVOP                    : 2
    Format settings, QPel                    : No
    Format settings, GMC                     : No warppoints
    Format settings, Matrix                  : Default (H.263)
    Codec ID                                 : XVID
    Codec ID/Hint                            : XviD
    Duration                                 : 23mn 59s
    Bit rate                                 : 1 312 Kbps
    Width                                    : 704 pixels
    Height                                   : 400 pixels
    Display aspect ratio                     : 16:9
    Frame rate                               : 23.976 fps
    Color space                              : YUV
    Chroma subsampling                       : 4:2:0
    Bit depth                                : 8 bits
    Scan type                                : Progressive
    Compression mode                         : Lossy
    Bits/(Pixel*Frame)                       : 0.194
    Stream size                              : 225 MiB (77%)
    Writing library                          : XviD 67

    Audio #1
    ID                                       : 1
    Format                                   : AC-3
    Format/Info                              : Audio Coding 3
    Mode extension                           : CM (complete main)
    Format settings, Endianness              : Big
    Codec ID                                 : 2000
    Duration                                 : 23mn 59s
    Bit rate mode                            : Constant
    Bit rate                                 : 192 Kbps
    Channel(s)                               : 2 channels
    Channel positions                        : Front: L R
    Sampling rate                            : 48.0 KHz
    Compression mode                         : Lossy
    Stream size                              : 33.0 MiB (11%)
    Alignment                                : Split accross interleaves
    Interleave, duration                     : 42 ms (1.00 video frame)
    Interleave, preload duration             : 500 ms

    Audio #2
    ID                                       : 2
    Format                                   : AC-3
    Format/Info                              : Audio Coding 3
    Mode extension                           : CM (complete main)
    Format settings, Endianness              : Big
    Codec ID                                 : 2000
    Duration                                 : 23mn 59s
    Bit rate mode                            : Constant
    Bit rate                                 : 192 Kbps
    Channel(s)                               : 2 channels
    Channel positions                        : Front: L R
    Sampling rate                            : 48.0 KHz
    Compression mode                         : Lossy
    Stream size                              : 33.0 MiB (11%)
    Alignment                                : Split accross interleaves
    Interleave, duration                     : 42 ms (1.00 video frame)
    Interleave, preload duration             : 500 ms


    Список эпизодов

    01. Squad Jam
    02. GGO
    03. Fan Letter
    04. Death Game
    05. Leave the Last Battle to Me
    06. SAO Loser
    07. Second Squad Jam
    08. Booby Trap
    09. Ten-Minute Massacre
    10. The Devil`s Comeback
    11. Psycho Llenn
    12. Applause


    Скриншоты

    [img]http://c.radikal.ru/c00/1806/85/cdc2e495c02dt.jpg[/img][img]http://c.radikal.ru/c15/1806/eb/5a51538cf97et.jpg[/img][img]http://d.radikal.ru/d32/1806/83/1e513df59dbat.jpg[/img][img]http://c.radikal.ru/c29/1806/62/9d9de9993fb7t.jpg[/img][img]http://i105.fastpic.ru/big/2018/0620/72/e9b77e5520e2419e0a85536bfad11272.jpg[/img][img]http://i105.fastpic.ru/big/2018/0620/a4/79153d725c71e9133becdb17725713a4.jpg[/img][img]http://i105.fastpic.ru/big/2018/0620/0a/b6aa16a20c7f5c76863eb998bc942f0a.jpg[/img][img]http://i105.fastpic.ru/big/2018/0620/e7/dbf5c0b3b4b00a9de855746e5f3bdae7.jpg[/img][img]http://d.radikal.ru/d21/1806/0b/a6977e95c21ft.jpg[/img][img]http://d.radikal.ru/d27/1806/82/9f14530ea7f6t.jpg[/img]


    Семпл:
    Еще похожие »

    Как скачать?
    1. Качаем UTorrent версии 2.0 и выше отсюда
    2. После установки, жмем на ссылку Скачать торрент.
    3. Открываем его через utorrent.
    4. Ждем пока подключатся участники.
    5. Качаем.


    Комментарии о Мастера меча онлайн: Альтернативная «Призрачная пуля» / Sword Art Online: Gun Gale Online [Серии 01-12 из 12] | HDTVRip
    Добавлять комментарии могут только зарегистрированные пользователи

    Зарегистрироваться или Войти


    Ближайшее в кино
    • Профессионал дата выхода 27 сентября 2018Профессионал
      Дата выхода: 27 сентября 2018
    • 650699|Человек, который убил Дон Кихота|27 сентября 2018|200|300Человек, который убил Дон Кихота
      Дата выхода: 27 сентября 2018
    • 1045777|Непрощенный|27 сентября 2018|200|300Непрощенный
      Дата выхода: 27 сентября 2018
    • 939411|Мотылек|27 сентября 2018|200|300Мотылек
      Дата выхода: 27 сентября 2018
    • 652531|Тайна дома с часами|27 сентября 2018|200|300Тайна дома с часами
      Дата выхода: 27 сентября 2018
    • 970196|Поиск|27 сентября 2018|200|300Поиск
      Дата выхода: 27 сентября 2018
    • 429363|Игрушки для взрослых|27 сентября 2018|200|300Игрушки для взрослых
      Дата выхода: 27 сентября 2018
    • 1049653|Сердце мира|27 сентября 2018|200|300Сердце мира
      Дата выхода: 27 сентября 2018
    • 794309|Букшоп|27 сентября 2018|200|300Букшоп
      Дата выхода: 27 сентября 2018
    • 1015929|3 дня с Роми Шнайдер|27 сентября 2018|200|3003 дня с Роми Шнайдер
      Дата выхода: 27 сентября 2018
    • 947047|Похитители носков|27 сентября 2018|200|300Похитители носков
      Дата выхода: 27 сентября 2018
    • 1115748|Руби и Повелитель воды|27 сентября 2018|200|300Руби и Повелитель воды
      Дата выхода: 27 сентября 2018
    • 983306|Нуреев: Его сцена – весь мир|29 сентября 2018|200|300Нуреев: Его сцена – весь мир
      Дата выхода: 29 сентября 2018
    • 463634|Веном|4 октября 2018|200|300Веном
      Дата выхода: 4 октября 2018
    • 998805|На районе|4 октября 2018|200|300На районе
      Дата выхода: 4 октября 2018
    Вверх