• Игры для PS4
  • Игры для PS3
  • Игры для XBOX360
  • Игры для PC
  • Игры для PS2
  • Игры для PSP
  • Для телефонов
  • Музыка
  • Книги / Журналы
  • Обои
  • Опрос
    Удобен ли сайт в использовании?
      0
    • Очень удобен, все понятно1,1,false,300,full
    • Удобен1,2,false,300,full
    • Средне1,3,false,300,full
    • Неудобен, трудно ориентироваться1,4,false,300,full
    • Совсем неудобен1,5,false,300,full
    Статистика
    Всего онлайн -
    Гостей -
    Пользователей -
    Короли трекера
    Благодарности () Закрыть
    Информация о фильме
    Год выхода: 2017
    Наименование: Двойное лицо
    Оригинальное наименование: Het Tweede Gelaat
    Страна: Бельгия
    Жанр:  боевик, триллер, драма, криминал
    Режиссер постановщик: Ян Верхейен
    В главных ролях: Коэн Де Боу, Вернер Де Смедт, Грег Тиммерманс, Марсель Хенсема, Хендрик Эртз, Юрген Делнат, Крис ван ден Дюрпел, Хильде Хейнен

    О фильме: Двое офицеров полиции Винке и Верстуйф были верными напарниками, которым удавалось работать, как единое целое, и это помогало героям распутывать очень сложные преступления. Недавно в городе появился новый серийный убийца, который измывается над своими жертвами перед тем, как лишить их жизни, и это дело, как раз, будет поручено Винке и Верстуйфу. Герои стараются найти как можно больше улик, чтобы выследить преступника, однако тот решил сыграть с ними в игру, по плану которой он хочет рассорить коллег. Но все пойдет наперекосяк после того, как убийца начнет охотиться за новой жертвой, однако та явно не собирается попадать ему в руки.



    Файл
    Качество: HDRip 1080p
    Видео данные: MKV, 1920x800 (2.40:1), 24.000 fps, 10000 Кбит/с
    Аудио данные: AC3, 2 ch, 640 Кбит/с
    Перевод: Любительский многоголосый (GreenРай Studio)
    Продолжительность: 02:07:47

    Медиаинфо
    General
    Unique ID                                : 250221905303906525787185943573904413401 (0xBC3EFC6B962F15A0B6CAAB37C762D2D9)
    Complete name                            : D:ГРИНРАЙHet.Tweede.Gelaat.2017.P.BDRip.1080p.mkv
    Format                                   : Matroska
    Format version                           : Version 4 / Version 2
    File size                                : 9.41 GiB
    Duration                                 : 2 h 7 min
    Overall bit rate mode                    : Constant
    Overall bit rate                         : 10.5 Mb/s
    Encoded date                             : UTC 2018-07-12 06:04:56
    Writing application                      : mkvmerge v6.5.0 ("Isn"t she lovely") built on Oct 20 2013 12:50:05
    Writing library                          : libebml v1.3.0 + libmatroska v1.4.1

    Video
    ID                                       : 1
    Format                                   : AVC
    Format/Info                              : Advanced Video Codec
    Format profile                           : Main@L4
    Format settings                          : CABAC / 3 Ref Frames
    Format settings, CABAC                   : Yes
    Format settings, RefFrames               : 3 frames
    Codec ID                                 : V_MPEG4/ISO/AVC
    Duration                                 : 2 h 7 min
    Bit rate mode                            : Constant
    Bit rate                                 : 10 000 kb/s
    Width                                    : 1 920 pixels
    Height                                   : 800 pixels
    Display aspect ratio                     : 2.40:1
    Frame rate mode                          : Constant
    Frame rate                               : 24.000 FPS
    Standard                                 : NTSC
    Color space                              : YUV
    Chroma subsampling                       : 4:2:0
    Bit depth                                : 8 bits
    Scan type                                : Progressive
    Bits/(Pixel*Frame)                       : 0.271
    Stream size                              : 8.65 GiB (92%)
    Language                                 : English
    Default                                  : Yes
    Forced                                   : No
    Color range                              : Limited

    Audio
    ID                                       : 2
    Format                                   : AC-3
    Format/Info                              : Audio Coding 3
    Codec ID                                 : A_AC3
    Duration                                 : 2 h 7 min
    Bit rate mode                            : Constant
    Bit rate                                 : 640 kb/s
    Channel(s)                               : 2 channels
    Channel positions                        : Front: L R
    Sampling rate                            : 48.0 kHz
    Frame rate                               : 31.250 FPS (1536 SPF)
    Bit depth                                : 16 bits
    Compression mode                         : Lossy
    Stream size                              : 585 MiB (6%)
    Service kind                             : Complete Main
    Default                                  : Yes
    Forced                                   : NoСвернуть


    Внимание, имеется  видео и аудио реклама от спонсора показа

    Похожие раздачи Искать похожие
    Инструкция по скачиванию
     1  Качаем uTorrent версии 2.0 и выше
     2  После установки, жмем выше под постером на ссылку Скачать [MediaGet] или Скачать .torrent
     3  Открываем скачанный файл через соответствующий клиент: MediaGet или uTorrent
     4  Ждем пока подключатся участники
     5  Качаем
    Комментарии о  Двойное лицо / Het Tweede Gelaat | HDRip 1080p 
    Ближайшее в кино
    Вверх