• Игры для PS4
  • Игры для PS3
  • Игры для XBOX360
  • Игры для PC
  • Игры для PS2
  • Игры для PSP
  • Для телефонов
  • Музыка
  • Книги / Журналы
  • Обои
  • Опрос
    Удобен ли сайт в использовании?
      0
    • Очень удобен, все понятно1,1,false,300,full
    • Удобен1,2,false,300,full
    • Средне1,3,false,300,full
    • Неудобен, трудно ориентироваться1,4,false,300,full
    • Совсем неудобен1,5,false,300,full
    Статистика
    Всего онлайн -
    Гостей -
    Пользователей -
    Короли трекера
    Благодарности () Закрыть
    Информация о фильме
    Название: Последний из племени
    Оригинальное название: The Last Of His Tribe
    Год выпуска: 1992
    Выпущено: США, Home Box Office (HBO), River City Productions Inc.
    Жанр:  Драма, мелодрама
    Режиссер: Гарри Хук
    В ролях: Джон Войт, Грэм Грин, Дэвид Огден Стайерз, Джек Блессинг, Энн Арчер, Дэниэл Бензали, Кристианна Хаубер, Чарльз Мартине, Карл Д. Паркер, Анджела Пэтон

    О фильме: Фильм основан на совершенно реальных событиях, происходивших в начале ХХ века. К 1911 году войны с индейцами давно отошли в прошлое. Особенно это касалось штата Калифорния, аборигенное население которого практически сошло на нет в результате "контакта" с белыми переселенцами. Племя яхи считалось на тот момент абсолютно исчезнувшим - все люди вымерли, их обычаи и язык ушли вместе с ними. Тем более удивительным оказывается появление на одной из захолустных американских ферм человека, ни слова не понимающего по английски. Этот человек и есть главный герой повествования - Иши, последний представитель племени яхи - народа, по меркам антропологов живущего в "каменном веке". Фильм посвящен проблемам контакта двух различных культур - древней и современной, да и просто человеческим взаимоотношениям.

    Продолжительность: 01:31:03
    Перевод: Профессиональный одноголосый
    Субтитры: Английские
    Навигация по главам: Есть

    Файл
    Качество: WEB-DL 1080p
    Видео: MPEG-4 AVC, 14,3 Мбит/сек, 1920x1080, 23,976 кадра/сек
    Аудио #1: AC3, 2 ch, 192 Кбит/сек | Русский, профессиональный (одноголосый закадровый)
    Аудио #2: EAC3, 2 ch, 224 Кбит/сек | Английский, оригинал



    Скриншоты
    [screen]http://img11.lostpic.net/2018/08/06/8ae377cdbbadb1255e2e560b99f37cbd.png[/screen][screen]http://img11.lostpic.net/2018/08/06/4a28fae9e4726ee9da903411a7921cd7.png[/screen][screen]http://img11.lostpic.net/2018/08/06/ab6b28797c42dc7de62f4b1732bc5a82.png[/screen][screen]http://img11.lostpic.net/2018/08/06/8f936f32d6b38799dc65a9739c0e8a59.png[/screen][screen]http://img11.lostpic.net/2018/08/06/3d074a6c1e9027ca83dcff4705e8f057.png[/screen][screen]http://img11.lostpic.net/2018/08/06/a5f7c3bcb9f64c5e8db636a4fca94da4.png[/screen][screen]http://img11.lostpic.net/2018/08/06/d5505e2451485721cbb0189cef3ea5ca.png[/screen][screen]http://img11.lostpic.net/2018/08/06/91c90307428f3554a76097b5b4584f1f.png[/screen]Свернуть


    Инфо-файл
    Общее
    Уникальный идентификатор                 : 238483130647348798696295496125468106209 (0xB36A2E252895B4EBAB465A0BD9A7DDE1)
    Полное имя                               : Последний.из.племени.1992.WEB-DL.1080p.mkv
    Формат                                   : Matroska
    Версия формата                           : Version 2
    Размер файла                             : 9,56 Гбайт
    Продолжительность                        : 1 ч. 31 м.
    Режим общего битрейта                    : Переменный
    Общий поток                              : 15,0 Мбит/сек
    Дата кодирования                         : UTC 2018-08-05 22:39:06
    Программа кодирования                    : mkvmerge v5.8.0 ("No Sleep / Pillow") built on Sep  2 2012 15:37:04
    Библиотека кодирования                   : libebml v1.2.3 + libmatroska v1.3.0

    Видео
    Идентификатор                            : 1
    Формат                                   : AVC
    Формат/Информация                        : Advanced Video Codec
    Профиль формата                          : High@L4
    Настройки формата                        : CABAC / 4 Ref Frames
    Параметр CABAC формата                   : Да
    Параметр RefFrames формата               : 4 кадра
    Идентификатор кодека                     : V_MPEG4/ISO/AVC
    Продолжительность                        : 1 ч. 31 м.
    Вид битрейта                             : Переменный
    Битрейт                                  : 14,3 Мбит/сек
    Максимальный битрейт                     : 15,0 Мбит/сек
    Ширина                                   : 1920 пикселей
    Высота                                   : 1080 пикселей
    Соотношение сторон                       : 16:9
    Режим частоты кадров                     : Постоянный
    Частота кадров                           : 23,976 (24000/1001) кадра/сек
    Цветовое пространство                    : YUV
    Субдискретизация насыщенности            : 4:2:0
    Битовая глубина                          : 8 бит
    Тип развёртки                            : Прогрессивная
    Бит/(Пиксели*Кадры)                      : 0.288
    Размер потока                            : 9,10 Гбайт (95%)
    Язык                                     : English
    По умолчанию                             : Да
    Принудительно                            : Нет
    Цветовой диапазон                        : Limited
    Основные цвета                           : BT.709
    Характеристики трансфера                 : BT.709
    Коэффициенты матрицы                     : BT.709

    Аудио #1
    Идентификатор                            : 2
    Формат                                   : AC-3
    Формат/Информация                        : Audio Coding 3
    Идентификатор кодека                     : A_AC3
    Продолжительность                        : 1 ч. 31 м.
    Вид битрейта                             : Постоянный
    Битрейт                                  : 192 Кбит/сек
    Каналы                                   : 2 канала
    Расположение каналов                     : Front: L R
    Частота                                  : 48,0 КГц
    Частота кадров                           : 31,250 кадров/сек (1536 SPF)
    Битовая глубина                          : 16 бит
    Метод сжатия                             : С потерями
    Размер потока                            : 125 Мбайт (1%)
    Заголовок                                : VO
    Язык                                     : Russian
    По умолчанию                             : Да
    Принудительно                            : Нет

    Аудио #2
    Идентификатор                            : 3
    Формат                                   : E-AC-3
    Формат/Информация                        : Enhanced Audio Coding 3
    Идентификатор кодека                     : A_EAC3
    Продолжительность                        : 1 ч. 31 м.
    Вид битрейта                             : Постоянный
    Битрейт                                  : 224 Кбит/сек
    Каналы                                   : 2 канала
    Расположение каналов                     : Front: L R
    Частота                                  : 48,0 КГц
    Частота кадров                           : 187,500 кадров/сек (256 SPF)
    Метод сжатия                             : С потерями
    Размер потока                            : 146 Мбайт (1%)
    Заголовок                                : Original
    Язык                                     : English
    По умолчанию                             : Нет
    Принудительно                            : Нет

    Текст
    Идентификатор                            : 4
    Формат                                   : UTF-8
    Идентификатор кодека                     : S_TEXT/UTF8
    Идентификатор кодека/Информация          : UTF-8 Plain Text
    Заголовок                                : SDH
    Язык                                     : English
    По умолчанию                             : Нет
    Принудительно                            : Нет

    Меню
    00:00:00.000                             : en:Chapter 01
    00:04:59.504                             : en:Chapter 02
    00:09:47.826                             : en:Chapter 03
    00:15:18.289                             : en:Chapter 04
    00:29:19.963                             : en:Chapter 05
    00:33:14.698                             : en:Chapter 06
    00:45:37.106                             : en:Chapter 07
    00:59:17.426                             : en:Chapter 08
    01:03:42.190                             : en:Chapter 09
    01:09:19.060                             : en:Chapter 10
    01:15:12.546                             : en:Chapter 11
    01:20:20.688                             : en:Chapter 12Свернуть


    Дополнительная информация
    • Исходник видео WEB-DL Amazon.Свернуть


    Сборка:[img]http://i1.imageban.ru/out/2018/02/13/db08a675822da337df05f97bda2ce544.gif[/img] [img]http://i3.imageban.ru/out/2018/07/23/276881ff853d23c7f0c2335cfae4252f.png[/img]
    Инструкция по скачиванию
     1  Качаем uTorrent версии 2.0 и выше
     2  После установки, жмем выше под постером на ссылку Скачать [MediaGet] или Скачать .torrent
     3  Открываем скачанный файл через соответствующий клиент: MediaGet или uTorrent
     4  Ждем пока подключатся участники
     5  Качаем
    Комментарии о  Последний из племени / The Last Of His Tribe | WEB-DL 1080p 
    Ближайшее в кино
    Вверх