• Игры для PS4
  • Игры для PS3
  • Игры для XBOX360
  • Игры для PC
  • Игры для PS2
  • Игры для PSP
  • Для телефонов
  • Музыка
  • Книги / Журналы
  • Обои
  • Опрос
    Удобен ли сайт в использовании?
      0
    • Очень удобен, все понятно1,1,false,300,full
    • Удобен1,2,false,300,full
    • Средне1,3,false,300,full
    • Неудобен, трудно ориентироваться1,4,false,300,full
    • Совсем неудобен1,5,false,300,full
    Статистика
    Всего онлайн -
    Гостей -
    Пользователей -
    Короли трекера
    Благодарности () Закрыть
    Информация о фильме
    Название: Глория
    Оригинальное название: Gloria
    Год выпуска: 1999
    Выпущено: США, Columbia Pictures, Eagle Point Production, Mandalay Entertainment
    Жанр:  Драма, триллер, криминал
    Режиссер: Сидни Люмет
    В ролях: Шэрон Стоун, Жан-Люк Фигероа, Джереми Нортэм, Кэти Мориарти, Джордж К. Скотт, Майк Старр, Бонни Беделиа, Бэрри МакЭвой, Дон Биллет, Тони ДиБенедетто, Бобби Каннавейл, Сарита Чодхери, Мириам Колон, Дезире Казадо, Давениа МакФадден, Чак Купер, Антония Рей...

    О фильме: Связавшая свою жизнь с мерзавцем, Глория вынуждена расплачиваться за это сполна. Сначала она отсидит за дружка тюремный срок, взяв вину на себя, а потом судьба сведет ее с малышом, родителей которого убил приятель. Материнский инстинкт возьмет верх над привязанностью к мужчине, тем более, что мальчику теперь грозит смертельная опасность, ведь он - единственный обладатель ценных сведений об опасном гангстере.

    Продолжительность: 01:47:51
    Перевод: Профессиональный многоголосый, авторский
    Субтитры: Английские
    Навигация по главам: Есть

    Файл
    Качество: WEB-DLRip 720p
    Видео: MPEG-4 AVC, 5661 Кбит/сек, 1280x720, 23,976 кадра/сек
    Аудио #1: AC3, 2 ch, 224 Кбит/сек | Русский, профессиональный (многоголосый закадровый) НТВ+
    Аудио #2: AC3, 2 ch, 192 Кбит/сек | Русский, профессиональный (многоголосый закадровый) R5
    Аудио #3: AC3, 2 ch, 192 Кбит/сек | Русский, профессиональный (многоголосый закадровый) ОРТ
    Аудио #4: AC3, 2 ch, 192 Кбит/сек | Русский, авторский (одноголосый закадровый) Андрей Гаврилов
    Аудио #5: AC3, 2 ch, 192 Кбит/сек | Русский, авторский (одноголосый закадровый) Юрий Живов
    Аудио #6: AC3, 2 ch, 224 Кбит/сек | Английский, оригинал



    Скриншоты
    [screen]http://img11.lostpic.net/2018/08/05/89a1bcff0fa7c8bf49d12623256b7ab5.png[/screen][screen]http://img11.lostpic.net/2018/08/05/5e53d7198917196dd34071a0cbd4f4ef.png[/screen][screen]http://img11.lostpic.net/2018/08/05/bca5a2ae06f546c62378e2c59d9b5964.png[/screen][screen]http://img11.lostpic.net/2018/08/05/89826f6306b97d61e317470142646e76.png[/screen][screen]http://img11.lostpic.net/2018/08/05/1c0069a837fe8a58291e55edebaf92b2.png[/screen][screen]http://img11.lostpic.net/2018/08/05/60879eeadac6321ec4889a3e22a6f542.png[/screen][screen]http://img11.lostpic.net/2018/08/05/b4aeaae67543a18f0433603af1a6b4e8.png[/screen][screen]http://img11.lostpic.net/2018/08/05/ef4f9079479e2bf781d95eb003f0e7e4.png[/screen]Свернуть


    Инфо-файл
    x264 [info]: frame I:1107  Avg QP:16.58  size:195293
    x264 [info]: frame P:34704 Avg QP:19.35  size: 66390
    x264 [info]: frame B:119347 Avg QP:21.60  size: 17252
    -----------------------------------------------------
    Общее
    Уникальный идентификатор                 : 241722538161478502844225593165671551402 (0xB5DA1144431C656398F95AA7690BD1AA)
    Полное имя                               : Глория.1999.WEB-DLRip.720p.KORSAR.mkv
    Формат                                   : Matroska
    Версия формата                           : Version 2
    Размер файла                             : 5,18 Гбайт
    Продолжительность                        : 1 ч. 47 м.
    Общий поток                              : 6878 Кбит/сек
    Дата кодирования                         : UTC 2018-08-05 18:52:56
    Программа кодирования                    : mkvmerge v5.8.0 ("No Sleep / Pillow") built on Sep  2 2012 15:37:04
    Библиотека кодирования                   : libebml v1.2.3 + libmatroska v1.3.0

    Видео
    Идентификатор                            : 1
    Формат                                   : AVC
    Формат/Информация                        : Advanced Video Codec
    Профиль формата                          : High@L4.1
    Настройки формата                        : CABAC / 9 Ref Frames
    Параметр CABAC формата                   : Да
    Параметр RefFrames формата               : 9 кадров
    Идентификатор кодека                     : V_MPEG4/ISO/AVC
    Продолжительность                        : 1 ч. 47 м.
    Битрейт                                  : 5661 Кбит/сек
    Ширина                                   : 1280 пикселей
    Высота                                   : 720 пикселей
    Соотношение сторон                       : 16:9
    Режим частоты кадров                     : Постоянный
    Частота кадров                           : 23,976 (24000/1001) кадра/сек
    Цветовое пространство                    : YUV
    Субдискретизация насыщенности            : 4:2:0
    Битовая глубина                          : 8 бит
    Тип развёртки                            : Прогрессивная
    Бит/(Пиксели*Кадры)                      : 0.256
    Размер потока                            : 4,16 Гбайт (80%)
    Заголовок                                : RIP | MZMA
    Библиотека кодирования                   : x264 core 152 r2851kMod ba24899
    Настройки программы                      : cabac=1 / ref=9 / deblock=1:-2:-2 / analyse=0x3:0x113 / me=umh / subme=11 / psy=1 / fade_compensate=0.00 / psy_rd=1.00:0.00 / mixed_ref=1 / me_range=64 / chroma_me=1 / trellis=2 / 8x8dct=1 / cqm=0 / deadzone=21,11 / fast_pskip=0 / chroma_qp_offset=-2 / threads=6 / lookahead_threads=1 / sliced_threads=0 / nr=0 / decimate=0 / interlaced=0 / bluray_compat=0 / constrained_intra=0 / bframes=16 / b_pyramid=2 / b_adapt=2 / b_bias=0 / direct=3 / weightb=1 / open_gop=0 / weightp=2 / keyint=240 / keyint_min=23 / scenecut=40 / intra_refresh=0 / rc_lookahead=40 / rc=2pass / mbtree=0 / bitrate=5661 / ratetol=1.0 / qcomp=0.60 / qpmin=0 / qpmax=69 / qpstep=4 / cplxblur=20.0 / qblur=0.5 / vbv_maxrate=50000 / vbv_bufsize=62500 / nal_hrd=none / filler=0 / ip_ratio=1.40 / pb_ratio=1.30 / aq=3:0.90
    Язык                                     : English
    По умолчанию                             : Да
    Принудительно                            : Нет
    Цветовой диапазон                        : Limited
    Основные цвета                           : BT.709
    Характеристики трансфера                 : BT.709
    Коэффициенты матрицы                     : BT.709

    Аудио #1
    Идентификатор                            : 2
    Формат                                   : AC-3
    Формат/Информация                        : Audio Coding 3
    Идентификатор кодека                     : A_AC3
    Продолжительность                        : 1 ч. 47 м.
    Вид битрейта                             : Постоянный
    Битрейт                                  : 224 Кбит/сек
    Каналы                                   : 2 канала
    Расположение каналов                     : Front: L R
    Частота                                  : 48,0 КГц
    Частота кадров                           : 31,250 кадров/сек (1536 SPF)
    Битовая глубина                          : 16 бит
    Метод сжатия                             : С потерями
    Размер потока                            : 173 Мбайт (3%)
    Заголовок                                : MVO | НТВ+
    Язык                                     : Russian
    По умолчанию                             : Да
    Принудительно                            : Нет

    Аудио #2
    Идентификатор                            : 3
    Формат                                   : AC-3
    Формат/Информация                        : Audio Coding 3
    Идентификатор кодека                     : A_AC3
    Продолжительность                        : 1 ч. 47 м.
    Вид битрейта                             : Постоянный
    Битрейт                                  : 192 Кбит/сек
    Каналы                                   : 2 канала
    Расположение каналов                     : Front: L R
    Частота                                  : 48,0 КГц
    Частота кадров                           : 31,250 кадров/сек (1536 SPF)
    Битовая глубина                          : 16 бит
    Метод сжатия                             : С потерями
    Размер потока                            : 148 Мбайт (3%)
    Заголовок                                : MVO | R5
    Язык                                     : Russian
    По умолчанию                             : Нет
    Принудительно                            : Нет

    Аудио #3
    Идентификатор                            : 4
    Формат                                   : AC-3
    Формат/Информация                        : Audio Coding 3
    Идентификатор кодека                     : A_AC3
    Продолжительность                        : 1 ч. 47 м.
    Вид битрейта                             : Постоянный
    Битрейт                                  : 192 Кбит/сек
    Каналы                                   : 2 канала
    Расположение каналов                     : Front: L R
    Частота                                  : 48,0 КГц
    Частота кадров                           : 31,250 кадров/сек (1536 SPF)
    Битовая глубина                          : 16 бит
    Метод сжатия                             : С потерями
    Размер потока                            : 148 Мбайт (3%)
    Заголовок                                : MVO | ОРТ
    Язык                                     : Russian
    По умолчанию                             : Нет
    Принудительно                            : Нет

    Аудио #4
    Идентификатор                            : 5
    Формат                                   : AC-3
    Формат/Информация                        : Audio Coding 3
    Идентификатор кодека                     : A_AC3
    Продолжительность                        : 1 ч. 47 м.
    Вид битрейта                             : Постоянный
    Битрейт                                  : 192 Кбит/сек
    Каналы                                   : 2 канала
    Расположение каналов                     : Front: L R
    Частота                                  : 48,0 КГц
    Частота кадров                           : 31,250 кадров/сек (1536 SPF)
    Битовая глубина                          : 16 бит
    Метод сжатия                             : С потерями
    Размер потока                            : 148 Мбайт (3%)
    Заголовок                                : AVO | А. Гаврилов
    Язык                                     : Russian
    По умолчанию                             : Нет
    Принудительно                            : Нет

    Аудио #5
    Идентификатор                            : 6
    Формат                                   : AC-3
    Формат/Информация                        : Audio Coding 3
    Идентификатор кодека                     : A_AC3
    Продолжительность                        : 1 ч. 47 м.
    Вид битрейта                             : Постоянный
    Битрейт                                  : 192 Кбит/сек
    Каналы                                   : 2 канала
    Расположение каналов                     : Front: L R
    Частота                                  : 48,0 КГц
    Частота кадров                           : 31,250 кадров/сек (1536 SPF)
    Битовая глубина                          : 16 бит
    Метод сжатия                             : С потерями
    Размер потока                            : 148 Мбайт (3%)
    Заголовок                                : AVO | Ю. Живов
    Язык                                     : Russian
    По умолчанию                             : Нет
    Принудительно                            : Нет

    Аудио #6
    Идентификатор                            : 7
    Формат                                   : AC-3
    Формат/Информация                        : Audio Coding 3
    Идентификатор кодека                     : A_AC3
    Продолжительность                        : 1 ч. 47 м.
    Вид битрейта                             : Постоянный
    Битрейт                                  : 224 Кбит/сек
    Каналы                                   : 2 канала
    Расположение каналов                     : Front: L R
    Частота                                  : 48,0 КГц
    Частота кадров                           : 31,250 кадров/сек (1536 SPF)
    Битовая глубина                          : 16 бит
    Метод сжатия                             : С потерями
    Размер потока                            : 173 Мбайт (3%)
    Заголовок                                : Original
    Язык                                     : English
    По умолчанию                             : Нет
    Принудительно                            : Нет

    Текст #1
    Идентификатор                            : 8
    Формат                                   : UTF-8
    Идентификатор кодека                     : S_TEXT/UTF8
    Идентификатор кодека/Информация          : UTF-8 Plain Text
    Язык                                     : English
    По умолчанию                             : Нет
    Принудительно                            : Нет

    Текст #2
    Идентификатор                            : 9
    Формат                                   : UTF-8
    Идентификатор кодека                     : S_TEXT/UTF8
    Идентификатор кодека/Информация          : UTF-8 Plain Text
    Заголовок                                : SDH
    Язык                                     : English
    По умолчанию                             : Нет
    Принудительно                            : Нет

    Меню
    00:00:00.000                             : en:Chapter 1
    00:05:33.296                             : en:Chapter 2
    00:16:21.777                             : en:Chapter 3
    00:26:21.459                             : en:Chapter 4
    00:34:28.905                             : en:Chapter 5
    00:41:23.152                             : en:Chapter 6
    00:45:33.652                             : en:Chapter 7
    00:50:28.071                             : en:Chapter 8
    00:58:11.117                             : en:Chapter 9
    01:06:59.228                             : en:Chapter 10
    01:11:58.527                             : en:Chapter 11
    01:15:44.086                             : en:Chapter 12
    01:20:05.430                             : en:Chapter 13
    01:22:24.778                             : en:Chapter 14
    01:26:45.580                             : en:Chapter 15
    01:31:17.769                             : en:Chapter 16
    01:36:07.308                             : en:Chapter 17
    01:43:06.977                             : en:Chapter 18
    01:44:46.201                             : en:Chapter 19Свернуть




    Дополнительная информация
    • Исходник видео WEB-DL Amazon.Свернуть
    Похожие раздачи Искать похожие
    Инструкция по скачиванию
     1  Качаем uTorrent версии 2.0 и выше
     2  После установки, жмем выше под постером на ссылку Скачать [MediaGet] или Скачать .torrent
     3  Открываем скачанный файл через соответствующий клиент: MediaGet или uTorrent
     4  Ждем пока подключатся участники
     5  Качаем
    Комментарии о  Глория / Gloria | WEB-DLRip 720p 
    Ближайшее в кино
    Вверх