• Игры для PS4
  • Игры для PS3
  • Игры для XBOX360
  • Игры для PC
  • Игры для PS2
  • Игры для PSP
  • Для телефонов
  • Музыка
  • Книги / Журналы
  • Обои
  • Опрос
    Откуда Вы о нас узнали?
      0
    • От знакомых2,1,false,300,full
    • Из социальных сетей2,2,false,300,full
    • Из поисковых систем2,3,false,300,full
    • Другое2,4,false,300,full
    Статистика
    Всего онлайн -
    Гостей -
    Пользователей -
    Короли трекера
    Благодарности () Закрыть
    Название: На Чесапикских берегах
    Оригинальное название: Chesapeake Shores
    Год выхода: 2016
    Жанр: драма, семейный
    Режиссер: Мартин Вуд

    В ролях:
    Меган Ори, Джесси Меткалф, Барбара Нивен, Дайан Лэдд, Трит Уильямс, Лейси Дж Мейли, Эмили Уллерап, Серж Уд, Вина Суд, Кэйден Магнусон и др.

    Описание сериала:
    Это история многочисленного семейства О"Брайенов. Один из главных персонажей – архитектор и градостроитель Мик О"Брайен. Когда-то он решил создать коммуну на берегу Чесапикского залива, на земле, которой владели ещё его предки. Трудоголик, Мик своей поглощённостью работой и упорством разрушил собственную семью и совсем испортил отношения с братьями. Жена от него ушла, но пятерых детей он ей не отдал, а отправил на воспитание своей матери Нелл.

    Прошли годы, дети, уже взрослые, один за другим начали съезжаться в Чизпик, чтобы воссоединить семью, найти понимание с отцом и попытаться примириться с матерью, которая, как они считают, их бросила. Да и братьям Мика нужно забыть былые обиды. Хорошо, что у этого разношерстного семейства есть Нелл, которая скрепляет О"Брайенов в единое целое!


    Страна: США
    Продолжительность: ~01:20:00
    Перевод: Любительский (двухголосый) NEON Studio
    Субтитры: Отсутствуют

    [img]https://u.myshows.me/r/50242.png[/img]
    Файл
    Формат: MKV
    Качество: HDTV (720p)

    Видео: MPEG-4 AVC, ~ 3000 Кбит/с, 1280x720
    Аудио: 48 kHz, AC3 Dolby Digital, 2/0 (L,R) ch, ~192 kbps

    [img]http://s020.radikal.ru/i705/1608/01/225cff83b1c3.jpg[/img][img]http://s017.radikal.ru/i441/1604/56/714e856e18ba.gif[/img]

    MediaInfo
    Формат                                   : Matroska
    Версия формата                           : Version 2
    Размер файла                             : 1,82 Гбайт
    Продолжительность                        : 1 ч. 21 м.
    Общий поток                              : 3191 Кбит/сек
    Дата кодирования                         : UTC 2016-08-17 07:48:25
    Программа кодирования                    : mkvmerge v4.9.1 ("Ich will") сборка от Jul 11 2011 23:53:15
    Библиотека кодирования                   : libebml v1.2.1 + libmatroska v1.1.1

    Видео
    Идентификатор                            : 1
    Формат                                   : AVC
    Формат/Информация                        : Advanced Video Codec
    Профиль формата                          : Main@L5.1
    Параметр CABAC формата                   : Да
    Параметр ReFrames формата                : 1 кадр
    Режим смешивания                         : Header stripping
    Идентификатор кодека                     : V_MPEG4/ISO/AVC
    Продолжительность                        : 1 ч. 21 м.
    Битрейт                                  : 2936 Кбит/сек
    Ширина                                   : 1280 пикселей
    Высота                                   : 720 пикселей
    Соотношение сторон                       : 16:9
    Режим частоты кадров                     : Постоянный
    Частота кадров                           : 23,976 (23976/1000) кадра/сек
    Цветовое пространство                    : YUV
    Субдискретизация насыщенности            : 4:2:0
    Битовая глубина                          : 8 бит
    Тип развёртки                            : Прогрессивная
    Бит/(Пиксели*Кадры)                      : 0.133
    Размер потока                            : 1,68 Гбайт (92%)
    Default                                  : Да
    Forced                                   : Нет

    Аудио
    Идентификатор                            : 2
    Формат                                   : AC-3
    Формат/Информация                        : Audio Coding 3
    Расширение режима                        : CM (complete main)
    Параметр Endianness формата              : Big
    Режим смешивания                         : Header stripping
    Идентификатор кодека                     : A_AC3
    Продолжительность                        : 1 ч. 21 м.
    Вид битрейта                             : Постоянный
    Битрейт                                  : 192 Кбит/сек
    Каналы                                   : 2 канала
    Расположение каналов                     : Front: L R
    Частота                                  : 48,0 КГц
    Частота кадров                           : 31,250 кадров/сек (1536 spf)
    Метод сжатия                             : С потерями
    Размер потока                            : 112 Мбайт (6%)
    Default                                  : Да
    Forced                                   : Нет
    Свернуть


    Скриншоты
    [screen]http://i77.fastpic.ru/big/2016/0817/33/53ac45ea0f743d31bb4654c5515be533.jpg[/screen][screen]http://i78.fastpic.ru/big/2016/0817/52/84386b6ecc88cd5f3a77809b9d340052.jpg[/screen][screen]http://i77.fastpic.ru/big/2016/0817/e5/f2dfb3df620687f47aa15220b4bacde5.jpg[/screen][screen]http://i77.fastpic.ru/big/2016/0817/bf/749d80e6457eb7049d7fec5424bf1fbf.jpg[/screen]Свернуть


    Внимание, присутствуют вставки голосовой и/или текстовой рекламы.
    Похожие раздачи Искать похожие
    Инструкция по скачиванию
     1  Качаем uTorrent версии 2.0 и выше
     2  После установки, жмем выше под постером на ссылку Скачать [MediaGet] или Скачать .torrent
     3  Открываем скачанный файл через соответствующий клиент: MediaGet или uTorrent
     4  Ждем пока подключатся участники
     5  Качаем
    Комментарии о  На Чесапикских берегах / Chesapeake Shores [Сезон 01] | HDTV 720p 
    Ближайшее в кино
    Вверх