• Игры для PS4
  • Игры для PS3
  • Игры для XBOX360
  • Игры для PC
  • Игры для PS2
  • Игры для PSP
  • Для телефонов
  • Музыка
  • Книги / Журналы
  • Обои
  • Опрос
    Удобен ли сайт в использовании?
      0
    • Очень удобен, все понятно1,1,false,300,full
    • Удобен1,2,false,300,full
    • Средне1,3,false,300,full
    • Неудобен, трудно ориентироваться1,4,false,300,full
    • Совсем неудобен1,5,false,300,full
    Статистика
    Всего онлайн -
    Гостей -
    Пользователей -
    Короли трекера
    
    Благодарности () Закрыть
    Быстрее загружает сайты Экономит интернет—трафик Меняет оформление страницы ВК Блокирует всю рекламу на сайтах Загружает торренты как µTorrent клиент Объеденяет все твои чаты из соц. сетей в один Проигрывает твою музыку не заходя во ВКонтакте
    Новый интернет-браузер
    Orbitum
    Скачать
    и многое другое... Подробности на сайте производителя
    Информация о фильме
    Название: Белая планета
    Оригинальное название: La planete blanche / The White Planet
    Год выхода: 2006
    Жанр:  документальный
    Режиссер: Жан Лемир, Тьерри Пиантанида, Тьерри Рагоберт
    В ролях: Жан-Луи Этьен

    Описание:
    Арктика — особый мир, где правит холод сформированный снегом и ветром. Мир замороженных морей, льда, огромных равнин, тундры, гор и ледников. Здесь проживает уникальная фауна, которая сумела адаптироваться к условиям на пределе выживания. С начала зимы и до триумфального возвращения солнца, Белая планета предлагает нам открыть для себя ее хрупкий и находящихся под угрозой исчезновения мир. Удивительный восторг — это именно тот вид эмоций, который испытываешь наблюдая за этим захватывающим диким миром Северного Полюса.

    Миром, который раскрывает в каждом из существ, населяющих его, способность к выживанию в самых тяжелых условиях, также приоткрывая все уязвимые места животного мира Арктики. Мы можем наблюдать за первыми, хрупкими шагами по льду детёныша полярного медведя и судьбой маленького канадского оленя карибу, во время крупнейшей в мире дикой миграции животных. Мы становимся свидетелями прихода зимы, а также пробуждения, после долгой полярной ночи, обитателей Белой Планеты.



    Страна: Франция, Канада
    Продолжительность: 01:21:38
    Перевод: Дубляж (студия "Омикрон")
    Субтитры: Английские

    Файл
    Качество видео: BDRip 1080p
    Видео: AVC/H.264, 1920x1080, ~12,4 Mbps
    Аудио#1: DTS, 6 ch, 1509 Kbps | Русский, дублированный (текст читал: Н.Козий)
    Аудио#2: DTS, 6 ch, 1509 Kbps | Русский, одноголосый закадровый, профессиональный (текст читал: Н.Козий)
    Аудио#3: DTS, 6 ch, 1509 Kbps | Французский

    M/I
    Общее
    Уникальный идентификатор                 : 250898046577500615297158926974066042728 (0xBCC134C242CF0718AF5FC4358BD32768)
    Полное имя                               : F:КИНОThe.White.Planet.2006.1080p.BluRay.DTS.2хRus.Fre.HDCLUB.mkv
    Формат                                   : Matroska
    Версия формата                           : Version 2
    Размер файла                             : 9,66 Гбайт
    Продолжительность                        : 1 ч. 21 м.
    Общий поток                              : 16,9 Мбит/сек
    Название фильма                          : The White Planet (2006) - Release for HDClub
    Дата кодирования                         : UTC 2011-05-18 18:55:06
    Программа кодирования                    : mkvmerge v2.9.8 ("C"est le bon") built on Aug 13 2009 12:49:06
    Библиотека кодирования                   : libebml v0.7.7 + libmatroska v0.8.1

    Видео
    Идентификатор                            : 1
    Формат                                   : AVC
    Формат/Информация                        : Advanced Video Codec
    Профиль формата                          : High@L4.1
    Настройки формата                        : CABAC / 3 Ref Frames
    Параметр CABAC формата                   : Да
    Параметр RefFrames формата               : 3 кадра
    Идентификатор кодека                     : V_MPEG4/ISO/AVC
    Продолжительность                        : 1 ч. 21 м.
    Битрейт                                  : 12,4 Мбит/сек
    Ширина                                   : 1920 пикселей
    Высота                                   : 1034 пикселя
    Соотношение сторон                       : 1,85:1
    Режим частоты кадров                     : Постоянный
    Частота кадров                           : 23,976 (24000/1001) кадра/сек
    Цветовое пространство                    : YUV
    Субдискретизация насыщенности            : 4:2:0
    Битовая глубина                          : 8 бит
    Тип развёртки                            : Прогрессивная
    Бит/(Пиксели*Кадры)                      : 0.261
    Размер потока                            : 6,89 Гбайт (71%)
    Заголовок                                : Release for HDClub
    Библиотека кодирования                   : x264 core 114 r1924 08d04a4
    Настройки программы                      : cabac=1 / ref=4 / deblock=1:-3:-3 / analyse=0x3:0x133 / me=umh / subme=10 / psy=1 / psy_rd=1.00:0.00 / mixed_ref=1 / me_range=48 / chroma_me=1 / trellis=2 / 8x8dct=1 / cqm=0 / deadzone=21,11 / fast_pskip=0 / chroma_qp_offset=-2 / threads=3 / sliced_threads=0 / nr=0 / decimate=1 / interlaced=0 / constrained_intra=0 / bframes=3 / b_pyramid=1 / b_adapt=2 / b_bias=0 / direct=3 / weightb=1 / open_gop=0 / weightp=2 / keyint=250 / keyint_min=23 / scenecut=40 / intra_refresh=0 / rc_lookahead=40 / rc=2pass / mbtree=1 / bitrate=12434 / ratetol=1.0 / qcomp=0.60 / qpmin=0 / qpmax=69 / qpstep=4 / cplxblur=20.0 / qblur=0.5 / ip_ratio=1.40 / aq=1:1.00
    Язык                                     : French
    Default                                  : Нет
    Forced                                   : Нет

    Аудио #1
    Идентификатор                            : 2
    Формат                                   : DTS
    Формат/Информация                        : Digital Theater Systems
    Идентификатор кодека                     : A_DTS
    Продолжительность                        : 1 ч. 21 м.
    Вид битрейта                             : Постоянный
    Битрейт                                  : 1509 Кбит/сек
    Каналы                                   : 6 каналов
    Расположение каналов                     : Front: L C R, Side: L R, LFE
    Частота                                  : 48,0 КГц
    Частота кадров                           : 93,750 кадра/сек (512 SPF)
    Битовая глубина                          : 16 бит
    Метод сжатия                             : С потерями
    Размер потока                            : 881 Мбайт (9%)
    Заголовок                                : DTS 5.1 @ 1536 kbps - Дубляж, студия «Омикрон»
    Язык                                     : Russian
    Default                                  : Да
    Forced                                   : Нет

    Аудио #2
    Идентификатор                            : 3
    Формат                                   : DTS
    Формат/Информация                        : Digital Theater Systems
    Идентификатор кодека                     : A_DTS
    Продолжительность                        : 1 ч. 21 м.
    Вид битрейта                             : Постоянный
    Битрейт                                  : 1509 Кбит/сек
    Каналы                                   : 6 каналов
    Расположение каналов                     : Front: L C R, Side: L R, LFE
    Частота                                  : 48,0 КГц
    Частота кадров                           : 93,750 кадра/сек (512 SPF)
    Битовая глубина                          : 16 бит
    Метод сжатия                             : С потерями
    Размер потока                            : 881 Мбайт (9%)
    Заголовок                                : DTS 5.1 @ 1536 kbps - Одноголосый закадровый, Н.Козий
    Язык                                     : Russian
    Default                                  : Нет
    Forced                                   : Нет

    Аудио #3
    Идентификатор                            : 4
    Формат                                   : DTS
    Формат/Информация                        : Digital Theater Systems
    Идентификатор кодека                     : A_DTS
    Продолжительность                        : 1 ч. 21 м.
    Вид битрейта                             : Постоянный
    Битрейт                                  : 1509 Кбит/сек
    Каналы                                   : 6 каналов
    Расположение каналов                     : Front: L C R, Side: L R, LFE
    Частота                                  : 48,0 КГц
    Частота кадров                           : 93,750 кадра/сек (512 SPF)
    Битовая глубина                          : 24 бит
    Метод сжатия                             : С потерями
    Задержка видео                           : 11 мс.
    Размер потока                            : 881 Мбайт (9%)
    Заголовок                                : DTS 5.1 @ 1536 kbps - Оригинал
    Язык                                     : French
    Default                                  : Нет
    Forced                                   : Нет

    Текст
    Идентификатор                            : 5
    Формат                                   : UTF-8
    Идентификатор кодека                     : S_TEXT/UTF8
    Идентификатор кодека/Информация          : UTF-8 Plain Text
    Язык                                     : English
    Default                                  : Нет
    Forced                                   : Нет

    Меню
    00:00:00.000                             : en:00:00:00.000
    00:07:16.311                             : en:00:07:16.311
    00:17:33.552                             : en:00:17:33.552
    00:25:06.964                             : en:00:25:06.964
    00:36:59.551                             : en:00:36:59.551
    00:41:18.267                             : en:00:41:18.267
    00:46:50.474                             : en:00:46:50.474
    00:53:34.962                             : en:00:53:34.962
    00:58:33.468                             : en:00:58:33.468
    01:04:00.044                             : en:01:04:00.044
    01:08:12.964                             : en:01:08:12.964
    01:17:59.049                             : en:01:17:59.049Свернуть


    Похожие раздачи Искать похожие
    Инструкция по скачиванию
     1  Качаем uTorrent версии 2.0 и выше
     2  После установки, жмем выше под постером на ссылку Скачать [MediaGet] или Скачать .torrent
     3  Открываем скачанный файл через соответствующий клиент: MediaGet или uTorrent
     4  Ждем пока подключатся участники
     5  Качаем
    Комментарии о  Белая планета / La planete blanche | BDRip 1080p 
    Ближайшее в кино
    Вверх