• Игры для PS4
  • Игры для PS3
  • Игры для XBOX360
  • Игры для PC
  • Игры для PS2
  • Игры для PSP
  • Для телефонов
  • Музыка
  • Книги / Журналы
  • Обои
  • Опрос
    Откуда Вы о нас узнали?
      0
    • От знакомых2,1,false,300,full
    • Из социальных сетей2,2,false,300,full
    • Из поисковых систем2,3,false,300,full
    • Другое2,4,false,300,full
    Статистика
    Всего онлайн -
    Гостей -
    Пользователей -
    Короли трекера
    Благодарности () Закрыть
    Москва слезам не верит

    Год выхода: 1979
    Страна: СССР
    Жанр:  Драма, Мелодрама, Комедия
    Продолжительность: 01:06:50 + 01:21:26
    Режиссер: Владимир Меньшов
    В ролях: Вера Алентова, Ирина Муравьёва, Алексей Баталов, Раиса Рязанова, Александр Фатюшин, Борис Сморчков, Виктор Уральский, Валентина Ушакова, Юрий Васильев, Евгения Ханаева, Зоя Фёдорова, Наталья Вавилова, Лия Ахеджакова, Олег Табаков, Владимир Басов, Владислав Матвеев, Владимир Гусев, Муза Крепкогорская, Татьяна Конюхова, Иннокентий Смоктуновский, Георгий Юматов, Леонид Харитонов, Павел Рудаков, Вениамин Нечаев, Лариса Барабанова, Гарри Бардин, Ирина Березина, Михаил Бочаров, Александр Бородянский, Лариса Данилина, Александра Данилова, Александра Денисова, Любовь Калюжная, Виктор Лазарев, Виктор Незнанов, Татьяна Никитина, Сергей Никитин, Елена Вольская, Инна Выходцева, Геннадий Ялович, Александр Жиль...

    О фильме: Москва пятидесятых годов. Три молодые провинциалки приезжают в Москву в поисках того, что ищут люди во всех столицах мира — любви, счастья и достатка. Их судьбы складываются именно так, как предполагает характер каждой из девушек.
    Антонина выходит замуж, растит детей, любит мужа. Людмиле Москва представляется лотереей, в которой она должна выиграть свое особенное счастье. Катерина же — отчаянно влюбляется, но избранник ее оставляет. Однако она не опускает руки, в одиночку растит дочь и к тому же успевает сделать блестящую карьеру. В сорок лет судьба дарит ей встречу с прекрасным человеком и настоящую любовь…

    [img]http://www.kinopoisk.ru/rating/46708.gif[/img]

    Кодек: х264
    Качество: BDRip 720p
    Видео: MPEG-4 AVC, 8250 Кбит/с, 948x720, 23.976 fps
    Аудио :  AC-3, 48.0 KHz, 6 ch, 448 Кбит/с
    Главы: Есть

    Инфо файл

    x264 [info]: frame I:536   Avg QP:18.53  size:162070
    x264 [info]: frame P:20052 Avg QP:20.74  size: 93384
    x264 [info]: frame B:75571 Avg QP:22.44  size: 28779

    Общее
    Уникальный идентификатор                 : 196076138747983251196529003267272488829 (0x9382E404E12D3B089AF0CDE5553C377D)
    Полное имя                               : H:СССРМосква слезам не верит 1979, BDRip 720p_KORSARМосква слезам не верит 1 серия 1979_BDRip 720p_KORSAR.mkv
    Формат                                   : Matroska
    Версия формата                           : Version 2
    Размер файла                             : 4,06 Гбайт
    Продолжительность                        : 1 ч. 6 м.
    Общий поток                              : 8696 Кбит/сек
    Название фильма                          : mister.hats
    Дата кодирования                         : UTC 2018-08-06 13:00:03
    Программа кодирования                    : mkvmerge v5.8.0 ("No Sleep / Pillow") built on Sep  2 2012 15:37:04
    Библиотека кодирования                   : libebml v1.2.3 + libmatroska v1.3.0

    Видео
    Идентификатор                            : 1
    Формат                                   : AVC
    Формат/Информация                        : Advanced Video Codec
    Профиль формата                          : High@L4.1
    Настройки формата                        : CABAC / 12 Ref Frames
    Параметр CABAC формата                   : Да
    Параметр RefFrames формата               : 12 кадров
    Идентификатор кодека                     : V_MPEG4/ISO/AVC
    Продолжительность                        : 1 ч. 6 м.
    Битрейт                                  : 8250 Кбит/сек
    Ширина                                   : 948 пикселей
    Высота                                   : 720 пикселей
    Соотношение сторон                       : 4:3
    Режим частоты кадров                     : Постоянный
    Частота кадров                           : 23,976 (24000/1001) кадра/сек
    Цветовое пространство                    : YUV
    Субдискретизация насыщенности            : 4:2:0
    Битовая глубина                          : 8 бит
    Тип развёртки                            : Прогрессивная
    Бит/(Пиксели*Кадры)                      : 0.504
    Размер потока                            : 3,77 Гбайт (93%)
    Библиотека кодирования                   : x264 core 152 r2851kMod ba24899
    Настройки программы                      : cabac=1 / ref=12 / deblock=1:-3:-3 / analyse=0x3:0x113 / me=umh / subme=11 / psy=1 / fade_compensate=0.00 / psy_rd=1.00:0.05 / mixed_ref=1 / me_range=48 / chroma_me=1 / trellis=2 / 8x8dct=1 / cqm=0 / deadzone=21,11 / fast_pskip=0 / chroma_qp_offset=-3 / threads=12 / lookahead_threads=2 / sliced_threads=0 / nr=0 / decimate=0 / interlaced=0 / bluray_compat=0 / constrained_intra=0 / bframes=8 / b_pyramid=2 / b_adapt=2 / b_bias=0 / direct=3 / weightb=1 / open_gop=0 / weightp=2 / keyint=240 / keyint_min=23 / scenecut=40 / intra_refresh=0 / rc_lookahead=40 / rc=2pass / mbtree=0 / bitrate=8250 / ratetol=1.0 / qcomp=0.60 / qpmin=0 / qpmax=39 / qpstep=4 / cplxblur=20.0 / qblur=0.5 / vbv_maxrate=50000 / vbv_bufsize=62500 / nal_hrd=none / filler=0 / ip_ratio=1.25 / pb_ratio=1.30 / aq=1:1.00
    Язык                                     : English
    Default                                  : Да
    Forced                                   : Нет
    Цветовой диапазон                        : Limited
    Основные цвета                           : BT.709
    Характеристики трансфера                 : BT.709
    Коэффициенты матрицы                     : BT.709

    Аудио
    Идентификатор                            : 2
    Формат                                   : AC-3
    Формат/Информация                        : Audio Coding 3
    Параметр Endianness формата              : Big
    Идентификатор кодека                     : A_AC3
    Продолжительность                        : 1 ч. 6 м.
    Вид битрейта                             : Постоянный
    Битрейт                                  : 448 Кбит/сек
    Каналы                                   : 6 каналов
    Расположение каналов                     : Front: L C R, Side: L R, LFE
    Частота                                  : 48,0 КГц
    Частота кадров                           : 31,250 кадров/сек (1536 SPF)
    Битовая глубина                          : 16 бит
    Метод сжатия                             : С потерями
    Размер потока                            : 214 Мбайт (5%)
    Язык                                     : Russian
    Default                                  : Да
    Forced                                   : Нет

    Меню
    00:00:00.000                             : en:Chapter 1
    00:04:00.406                             : en:Chapter 2
    00:08:27.256                             : en:Chapter 3
    00:09:44.917                             : en:Chapter 4
    00:12:57.067                             : en:Chapter 5
    00:15:17.917                             : en:Chapter 6
    00:22:54.373                             : en:Chapter 7
    00:26:51.943                             : en:Chapter 8
    00:29:58.338                             : en:Chapter 9
    00:35:52.400                             : en:Chapter 10
    00:42:41.475                             : en:Chapter 11
    00:46:03.343                             : en:Chapter 12
    00:48:36.079                             : en:Chapter 13
    00:55:13.351                             : en:Chapter 14
    01:01:13.002                             : en:Chapter 15
    01:04:29.532                             : en:Chapter 16
    01:06:50.631                             : en:Chapter 17
    01:13:54.346                             : en:Chapter 18
    01:14:38.348                             : en:Chapter 19
    01:17:12.586                             : en:Chapter 20
    01:21:11.074                             : en:Chapter 21
    01:28:33.975                             : en:Chapter 22
    01:35:22.925                             : en:Chapter 23
    01:40:35.738                             : en:Chapter 24
    01:46:30.884                             : en:Chapter 25
    01:54:40.999                             : en:Chapter 26
    01:57:20.616                             : en:Chapter 27
    02:00:59.752                             : en:Chapter 28
    02:04:17.408                             : en:Chapter 29
    02:10:55.806                             : en:Chapter 30
    02:18:33.596                             : en:Chapter 31
    02:22:05.892                             : en:Chapter 32

    Свернуть


    Скриншоты

    [screen]http://img11.lostpic.net/2018/08/06/1e221211c8a4dba101dbc97fda7f823b.png[/screen][screen]http://img11.lostpic.net/2018/08/06/37aac6e6f4b42ff0dbd0e83e2710b7b7.png[/screen][screen]http://img11.lostpic.net/2018/08/06/dcf60c622ebfc9453b177cbd73a02531.png[/screen][screen]http://img11.lostpic.net/2018/08/06/6b31487212027586e7ca250dad032a96.png[/screen][screen]http://img11.lostpic.net/2018/08/06/10956708b4558500e4841d20e72d8216.png[/screen][screen]http://img11.lostpic.net/2018/08/06/574f2f2ded7ed39b4efb2aa496f6a84c.png[/screen]
    Свернуть


    [img]http://i3.imageban.ru/out/2018/08/05/23e393fd45f1c8b52ff5d07b854609b3.png[/img][img]http://s018.radikal.ru/i516/1710/ce/3eb1e0641821.gif[/img] [img]http://korsar.tv/images/VKontakte.gif[/img]
    Похожие раздачи Искать похожие
    Инструкция по скачиванию
     1  Качаем uTorrent версии 2.0 и выше
     2  После установки, жмем выше под постером на ссылку Скачать [MediaGet] или Скачать .torrent
     3  Открываем скачанный файл через соответствующий клиент: MediaGet или uTorrent
     4  Ждем пока подключатся участники
     5  Качаем
    Комментарии о  Москва слезам не верит | BDRip 720p 
    Ближайшее в кино
    Вверх