• Игры для PS4
  • Игры для PS3
  • Игры для XBOX360
  • Игры для PC
  • Игры для PS2
  • Игры для PSP
  • Для телефонов
  • Музыка
  • Книги / Журналы
  • Обои
  • Опрос
    Откуда Вы о нас узнали?
      0
    • От знакомых2,1,false,300,full
    • Из социальных сетей2,2,false,300,full
    • Из поисковых систем2,3,false,300,full
    • Другое2,4,false,300,full
    Статистика
    Всего онлайн -
    Гостей -
    Пользователей -
    Короли трекера
    
    Благодарности () Закрыть
    Быстрее загружает сайты Экономит интернет—трафик Меняет оформление страницы ВК Блокирует всю рекламу на сайтах Загружает торренты как µTorrent клиент Объеденяет все твои чаты из соц. сетей в один Проигрывает твою музыку не заходя во ВКонтакте
    Новый интернет-браузер
    Оrbitum
    Скачать
    и многое другое... Подробности на сайте производителя
    Жёлтые птицы / The Yellow Birds
    «There Are Moments That Test Us And Choices That Define Us»

    Год выпуска: 2017
    Страна: США
    Производство: Cinelou Films, Story Mining & Supply Co., Echo Films
    Жанр:  Драма, военный

    Режиссёр: Александр Мурс
    В ролях: Олден Эренрайк, Дженнифер Энистон, Тай Шеридан, Тони Коллетт, Джейсон Патрик, Джек Хьюстон, Ли Тергесен, Роберт Пралго, Айлин Тецель, Рене Уиллетт

    Перевод: Профессиональный (многоголосый, закадровый) | HDRezka Studio
    Субтитры: Английские (полные, SDH)
    Реклама: Отсутствует

    Описание: Два подростка, Брендон Бартл и Дэниел Мерфи, оказываются в самом пекле Иракской войны. Между парнями завязывается крепкая дружба, но домой сможет вернуться только Брендон. Теперь он должен помочь матери Дэниела смириться с потерей и разобраться, как череда случайностей унесла жизнь друга.



    Качество: BDRip 1080p | CHD | The.Yellow.Birds.2017.1080p.BluRay.x264.DTS-CHD
    Продолжительность: 01:35:05

    Формат: MKV
    Видео кодек: MPEG-4 AVC
    Аудио кодек: AC3
    Видео: 1920x802 (2.40:1), 23,976 fps, x264 ~12.9 Mbps avg, 0.349 bit/pixel
    Аудио #1: 48 kHz, AC3 Dolby Digital, 2 (L,R) ch, ~192.00 kbps avg | RUS (HDRezka Studio)
    Аудио #2: 48 kHz, DTS, 3/2 (L,C,R,l,r) + LFE ch, ~1 509.00 kbps avg | ENG

    Дата премьеры (мир): 21 января 2017
    Дата премьеры (РФ):

    MediaInfo

    Общее
    Уникальный идентификатор                 : 106828685246654556546969306007883115445 (0x505E74D58E524E736AFC6DF5BB4E6BB5)
    Полное имя                               : F:OlLanDGroupThe.Yellow.Birds.2017.BDRip(1080p).OlLanDGroup.mkv
    Формат                                   : Matroska
    Версия формата                           : Version 4 / Version 2
    Размер файла                             : 9,68 Гбайт
    Продолжительность                        : 1 ч. 35 м.
    Общий поток                              : 14,6 Мбит/сек
    Название фильма                          : The.Yellow.Birds.2017   #TorpedoUK#
    Дата кодирования                         : UTC 2018-08-07 10:30:17
    Программа кодирования                    : mkvmerge v25.0.0 ("Prog Noir") 64-bit
    Библиотека кодирования                   : libebml v1.3.6 + libmatroska v1.4.9

    Видео
    Идентификатор                            : 1
    Формат                                   : AVC
    Формат/Информация                        : Advanced Video Codec
    Профиль формата                          : High@L4.1
    Параметр CABAC формата                   : Да
    Параметр ReFrames формата                : 4 кадра
    Идентификатор кодека                     : V_MPEG4/ISO/AVC
    Продолжительность                        : 1 ч. 35 м.
    Битрейт                                  : 12,9 Мбит/сек
    Ширина                                   : 1920 пикселей
    Высота                                   : 802 пикселя
    Соотношение сторон                       : 2,40:1
    Режим частоты кадров                     : Постоянный
    Частота кадров                           : 23,976 (24000/1001) кадра/сек
    Цветовое пространство                    : YUV
    Субдискретизация насыщенности            : 4:2:0
    Битовая глубина                          : 8 бит
    Тип развёртки                            : Прогрессивная
    Бит/(Пиксели*Кадры)                      : 0.349
    Размер потока                            : 8,55 Гбайт (88%)
    Библиотека кодирования                   : x264 core 155 r2867+74 66b5600 t_mod_Custom_2 [8-bit@all X86_64]
    Настройки программы                      : cabac=1 / ref=4 / deblock=1:-3:-3 / analyse=0x3:0x113 / me=umh / subme=10 / psy=1 / fade_compensate=0.00 / psy_rd=0.90:0.10 / mixed_ref=1 / me_range=48 / chroma_me=1 / trellis=2 / 8x8dct=1 / cqm=0 / deadzone=21,11 / fast_pskip=0 / chroma_qp_offset=-2 / threads=18 / lookahead_threads=3 / sliced_threads=0 / nr=0 / decimate=1 / interlaced=0 / bluray_compat=0 / constrained_intra=0 / fgo=0 / bframes=8 / b_pyramid=2 / b_adapt=2 / b_bias=0 / direct=3 / weightb=1 / open_gop=0 / weightp=2 / keyint=250 / keyint_min=23 / scenecut=40 / intra_refresh=0 / rc_lookahead=40 / rc=crf / mbtree=0 / crf=21.0000 / qcomp=0.70 / qpmin=0:0:0 / qpmax=69:69:69 / qpstep=4 / vbv_maxrate=35000 / vbv_bufsize=35000 / crf_max=0.0 / nal_hrd=none / filler=0 / ip_ratio=1.40 / pb_ratio=1.30 / aq=3:0.90 / aq-sensitivity=10.00 / aq-factor=1.00:1.00:1.00 / aq2=0 / aq3=2:[0.50:0.50]:[0.50:0.50]:[0.50:0.50]:[0.50:0.50] / aq3-sensitivity=10.00 / aq3-factor=[1.00:1.00]:[1.00:1.00]:[1.00:1.00] / aq3-boundary=192:64:24
    Язык                                     : English
    Default                                  : Да
    Forced                                   : Нет
    Цветовой диапазон                        : Limited
    Коэффициенты матрицы                     : BT.709

    Аудио #1
    Идентификатор                            : 2
    Формат                                   : AC-3
    Формат/Информация                        : Audio Coding 3
    Расширение режима                        : CM (complete main)
    Параметр Endianness формата              : Big
    Идентификатор кодека                     : A_AC3
    Продолжительность                        : 1 ч. 35 м.
    Вид битрейта                             : Постоянный
    Битрейт                                  : 192 Кбит/сек
    Каналы                                   : 2 канала
    Расположение каналов                     : Front: L R
    Частота                                  : 48,0 КГц
    Частота кадров                           : 31,250 кадров/сек (1536 spf)
    Битовая глубина                          : 16 бит
    Метод сжатия                             : С потерями
    Размер потока                            : 131 Мбайт (1%)
    Заголовок                                : MVO [HDRezka Studio]
    Язык                                     : Russian
    Default                                  : Да
    Forced                                   : Нет

    Аудио #2
    Идентификатор                            : 3
    Формат                                   : DTS
    Формат/Информация                        : Digital Theater Systems
    Режим                                    : 16
    Параметр Endianness формата              : Big
    Идентификатор кодека                     : A_DTS
    Продолжительность                        : 1 ч. 35 м.
    Вид битрейта                             : Постоянный
    Битрейт                                  : 1509 Кбит/сек
    Каналы                                   : 6 каналов
    Расположение каналов                     : Front: L C R, Side: L R, LFE
    Частота                                  : 48,0 КГц
    Частота кадров                           : 93,750 кадра/сек (512 spf)
    Битовая глубина                          : 24 бит
    Метод сжатия                             : С потерями
    Размер потока                            : 1,00 Гбайт (10%)
    Заголовок                                : Original
    Язык                                     : English
    Default                                  : Нет
    Forced                                   : Нет

    Текст #1
    Идентификатор                            : 4
    Формат                                   : UTF-8
    Идентификатор кодека                     : S_TEXT/UTF8
    Идентификатор кодека/Информация          : UTF-8 Plain Text
    Продолжительность                        : 1 ч. 28 м.
    Битрейт                                  : 41 бит/сек
    Count of elements                        : 1089
    Размер потока                            : 26,9 Кбайт (0%)
    Заголовок                                : Full
    Язык                                     : English
    Default                                  : Нет
    Forced                                   : Нет

    Текст #2
    Идентификатор                            : 5
    Формат                                   : UTF-8
    Идентификатор кодека                     : S_TEXT/UTF8
    Идентификатор кодека/Информация          : UTF-8 Plain Text
    Продолжительность                        : 1 ч. 33 м.
    Битрейт                                  : 49 бит/сек
    Count of elements                        : 1369
    Размер потока                            : 34,1 Кбайт (0%)
    Заголовок                                : SDH
    Язык                                     : English
    Default                                  : Нет
    Forced                                   : Нет

    Меню
    00:00:00.000                             : en:00:00:00.000
    00:06:17.502                             : en:00:06:17.502
    00:10:53.403                             : en:00:10:53.403
    00:17:08.778                             : en:00:17:08.778
    00:22:20.089                             : en:00:22:20.089
    00:28:05.517                             : en:00:28:05.517
    00:35:27.125                             : en:00:35:27.125
    00:42:37.680                             : en:00:42:37.680
    00:49:33.262                             : en:00:49:33.262
    00:55:13.101                             : en:00:55:13.101
    01:01:01.867                             : en:01:01:01.867
    01:06:34.616                             : en:01:06:34.616
    01:11:33.164                             : en:01:11:33.164
    01:17:53.085                             : en:01:17:53.085
    01:23:58.533                             : en:01:23:58.533
    01:29:42.127                             : en:01:29:42.127
    Свернуть


    Похожие раздачи Искать похожие
    Инструкция по скачиванию
     1  Качаем uTorrent версии 2.0 и выше
     2  После установки, жмем выше под постером на ссылку Скачать [MediaGet] или Скачать .torrent
     3  Открываем скачанный файл через соответствующий клиент: MediaGet или uTorrent
     4  Ждем пока подключатся участники
     5  Качаем
    Комментарии о  Жёлтые птицы / The Yellow Birds | BDRip 1080p 
    Ближайшее в кино
    Вверх